<?xml version="1.0" standalone="no"?>
<!DOCTYPE svg PUBLIC "-//W3C//DTD SVG 1.1//EN" "http://www.w3.org/Graphics/SVG/1.1/DTD/svg11.dtd" >
<svg>
<metadata>
Created by FontForge 20120731 at Fri Jan 10 09:48:22 2020
 By www
Copyright (c) 1928 by Adam Fathony. All rights reserved.
</metadata>
<defs>
<font id="RustlingTrees-Regular" horiz-adv-x="0" >
  <font-face 
    font-family="Rustling Trees"
    font-weight="400"
    font-stretch="normal"
    units-per-em="1000"
    panose-1="0 0 5 0 0 0 0 0 0 0"
    ascent="800"
    descent="-200"
    x-height="492"
    cap-height="889"
    bbox="-1248 -468 1939 1188.45"
    underline-thickness="50"
    underline-position="-50"
    unicode-range="U+0020-25CA"
  />
<missing-glyph horiz-adv-x="600" 
d="M492 900v-1200h-380v1200h380zM400 820h-198v-40h78v-44h-80v-40h200v40h-80v44h80v40zM320 665h-120v-125h200v41h-80v84zM280 624v-43h-40v43h40zM400 508h-200v-40h80v-44h-80v-40h120v84h80v40zM400 436h-40v-80h-160v-40h200v120zM400 289h-120v-67h40v28h40v-57
h-120v96h-40v-135h200v135zM400 82h-200v-136h200v136zM360 42v-56h-120v56h120zM400 -82h-200v-39h84l-84 -57v-39h200v39h-123l84 57h39v39z" />
    <glyph glyph-name=".notdef" horiz-adv-x="600" 
d="M492 900v-1200h-380v1200h380zM400 820h-198v-40h78v-44h-80v-40h200v40h-80v44h80v40zM320 665h-120v-125h200v41h-80v84zM280 624v-43h-40v43h40zM400 508h-200v-40h80v-44h-80v-40h120v84h80v40zM400 436h-40v-80h-160v-40h200v120zM400 289h-120v-67h40v28h40v-57
h-120v96h-40v-135h200v135zM400 82h-200v-136h200v136zM360 42v-56h-120v56h120zM400 -82h-200v-39h84l-84 -57v-39h200v39h-123l84 57h39v39z" />
    <glyph glyph-name=".null" 
 />
    <glyph glyph-name="nonmarkingreturn" horiz-adv-x="333" 
 />
    <glyph glyph-name="space" unicode=" " horiz-adv-x="300" 
 />
    <glyph glyph-name="exclam" unicode="!" horiz-adv-x="346" 
d="M147 128q0 -20 -21 -24q-29 -6 -49 30q-13 22 -16 58q-5 59 27 146t73 158.5t91 156.5t67 121q27 57 25 84q0 6 -2 22q-1 4 2.5 7t7.5 3q106 0 78 -113q-17 -72 -120 -258q-108 -196 -137 -274q-26 -70 -26 -117zM354 799l3 2q-1 1 -1 2q-1 2 -1 3l-1 -5v-2zM346 774
q1 0 4 8l-1 1l-1 2q-1 -2 -2 -11zM131 349q1 1 2 3t2 5q1 2 6 15.5t14.5 36t19.5 43.5q18 38 25 51q4 8 14 25.5t15 27.5q8 13 24 40t24 40q30 50 51 92q2 3 3.5 7t2.5 5q9 18 11 32q-3 -1 -5 -3t-3 -6t-2 -5q-1 -2 -2.5 -4.5t-2 -4t-1.5 -3.5l-2 -4l-32 -62q0 -1 -4.5 -9
t-8.5 -15l-67 -110q-15 -25 -21 -37l-3 -4q-2 -3 -4.5 -9.5t-5 -11t-4.5 -7.5q-15 -29 -26.5 -58t-16.5 -45t-5 -20q0 -1 2 -5zM355 730l1 1q2 1 2 2t-2 3q-1 -1 -1 -2v-4zM348 719q5 1 5 8q0 1 1 2l-1 -1q-2 -1 -5 -9zM187 411q10 20 11 21v1l24 45l-2 -3q0 1 2 4t5 8t6 11
q10 18 36 64.5t45.5 82.5t25.5 47v1q9 18 8 24q-5 -5 -7 -8q-76 -133 -117 -210q-3 -7 -12 -24q-24 -41 -25 -64zM376 678q0 1 1 1q0 2 -1 2l-1 -1zM368 660l2 3q-1 1 -1 2zM239 439q5 8 6 10q3 6 10 18.5t12 22.5l5 11l12 24q35 66 67 132q-1 -1 -13 -21.5t-31 -55
t-34 -64.5q-17 -33 -28 -59l-2 -5q-4 -12 -4 -13zM245 421l1 4l-2 -2zM185 404l1 5q-3 0 -3 -3zM237 403q1 0 1 0.5t1 0.5v1q-1 1 -1 2v-1q-1 -1 -1 -3zM68 -52q-16 -32 -41 -18q-27 17 -27 61q0 24 10 48q3 6 8.5 18.5t8.5 18.5q10 13 33 14t40.5 -17t6.5 -43
q-14 -30 -22 -45q-7 -18 -17 -37zM20 15q3 2 5 5q4 7 11.5 22.5t11.5 23.5v3l-1 1l-1 1q-1 -1 -3 -3.5t-3 -4.5q-4 -8 -10.5 -24t-9.5 -24zM19 7q0 1 1 3v1q-1 1 -1 2l-1 -4q1 -1 1 -2z" />
    <glyph glyph-name="quotedbl" unicode="&#x22;" horiz-adv-x="295" 
d="M90 646q-16 -13 -37 -7.5t-39 20t-13 20.5q1 2 6 8t7 10q33 51 46 123q1 9 1 28q0 7 1 11q4 10 26.5 5.5t40.5 -15.5q16 -9 18 -41q1 -45 -17.5 -91.5t-39.5 -70.5zM213 614q-20 -11 -38.5 -3.5t-32 20t-12.5 16.5q1 1 3.5 3t10 14t14 30t15 55.5t14.5 85.5q0 1 1 8t2 11
q1 8 10 11q15 4 57 -11t38 -48q-6 -78 -34 -138q-18 -35 -48 -54zM62 753q4 0 4 3q7 13 7 28q0 2 1.5 6t2.5 7q0 2 -2 4l-1 -1v-3q-1 -4 -1 -13q-9 -10 -11 -31zM84 746q3 3 4 5q0 1 -2 5l-2 -4v-6zM199 747h1v5h-1v-5zM57 734q6 5 4 16q-6 -5 -4 -16zM73 718q12 10 10 25
q-12 -10 -10 -25zM51 722q5 4 5 11q-5 -2 -5 -11zM113 727h1v2zM191 715q5 3 5 12l-1 2q-1 0 -3 -2q0 -2 -0.5 -6t-0.5 -6zM46 713l4 8q-4 -1 -4 -8zM68 705q6 4 4 11q-6 -1 -4 -11zM186 698q6 4 4 15q-6 -4 -4 -15zM56 689q9 4 11 15q-4 -1 -5.5 -3t-3 -6.5t-2.5 -5.5z
M100 694l3 5q-1 1 -1 2q0 -3 -2 -7zM180 688q6 0 5 7v3q-5 -2 -5 -10zM197 671q4 1 7 4.5t4 5.5t2.5 8t1.5 7q-1 1 -1 2q-2 0 -2 -1zM176 677q4 3 3 9zM241 672l3 3q-1 1 -1 2q-1 -1 -1 -2q-1 -2 -1 -3z" />
    <glyph glyph-name="numbersign" unicode="#" horiz-adv-x="753" 
d="M259 118q-45 -15 -77 24q-39 49 -19 147q-54 -3 -65 -23q-6 -12 -27 6q-29 23 -19 48q16 40 133 41q14 38 30 71q-50 -3 -61 -22q-6 -12 -27 5q-28 23 -19 48q15 43 143 41l49 90q15 30 13 42q-4 21 16 21q28 1 53.5 -26t17.5 -70q-6 -37 -21 -66q10 -1 30.5 -2.5
t30.5 -2.5q12 24 31.5 59.5t24.5 44.5q15 30 13 42q-4 21 16 21q28 1 53.5 -26t17.5 -70q-6 -35 -22 -67q0 -2 -2 -4q30 4 60 12q6 1 13 6t10.5 4t14.5 -11t30 -35q9 -12 -3.5 -28.5t-35.5 -24.5q-34 -14 -130 -7q-20 -39 -30 -62q44 5 75 14q5 1 10.5 5t8.5 4.5t9 -2
t15 -13t25 -30.5q9 -12 -4 -28t-35 -25q-37 -15 -139 -6q-25 -88 -8 -122q2 -4 3 -5q3 -4 1 -10.5t-7 -7.5q-47 -16 -77 24q-37 45 -22 133q-50 6 -78 8q-14 -34 -19.5 -76t4.5 -66q2 -4 2 -5q3 -4 1 -10.5t-7 -7.5zM386 288l1 2l1 2q1 3 8.5 24t9.5 25v1q1 2 1 3
q17 39 33 70q13 28 36 73q27 49 42 83l3 7q0 1 -0.5 3t-0.5 3q-5 -3 -6 -6q-21 -43 -46 -90q-1 -4 -4 -8q-4 -7 -10.5 -20.5t-12 -24t-9.5 -19.5q-14 -27 -27 -57l-5 -14q-3 -8 -8 -25.5t-8 -25.5v-5q0 -1 2 -1zM190 288q0 1 1 1q0 1 2 3q12 41 17 49q5 10 8 19q12 26 34 73
q9 18 22.5 43t14.5 27q24 47 33 68q1 1 2 4l1 3v6q-5 -3 -6 -6q-23 -46 -38 -75l-13 -23q-16 -32 -24 -47l-34 -73v-1q-4 -8 -22 -65q0 -3 1 -5q0 -1 1 -1zM225 318l3 2q2 2 3 4q13 28 16 34q17 36 36 73q4 9 10.5 21.5t10.5 20.5l7 14l7 14q11 21 22 48v8q-4 -2 -4 -4
q-15 -27 -27 -51l-35 -70q-14 -28 -35 -73l-6 -14l-3 -8v-1q-4 -12 -5 -18zM421 318q5 5 5 6l9 19q15 33 34 69l37 74l1 1q22 45 29 62v8q-4 -2 -5 -4q-6 -12 -17.5 -34.5t-16.5 -32.5q-15 -29 -36 -73q-8 -15 -15 -30t-12 -25.5t-6 -12.5v-2l-3 -6v-1q-2 -6 -4 -18z
M365 513q2 0 2 2q2 2 0 4l-2 -2v-4zM560 513q3 0 3 2v4l-2 -2q0 -3 -1 -4zM275 328q1 0 3 2l12 25q7 13 21 41q1 1 1 3.5v3.5q5 4 15 25l18 36q14 30 16 33q2 4 3 14q-4 -2 -4 -4q-4 -6 -5 -10q-15 -27 -34 -69l-8 -15q-1 -2 -1 -10q-5 -3 -6 -4l-21 -44l-8 -15q-1 -2 -1 -6
t-1 -6zM471 328q1 0 3 2l6 13q15 29 26 53q1 2 1 7q5 4 6 5l27 56h1l11 24q6 13 8 23q-4 -2 -5 -4q-4 -10 -10 -20l-36 -74l-1 -2v-3q0 -3 -1 -5l-2 -1l-3 -3q-3 -6 -8.5 -18t-10 -21.5t-8.5 -17.5l-2 -2q-2 -8 -2 -12zM184 486h2q-1 1 -2 1h-2q1 -1 2 -1zM162 481q1 1 2 1
l-1 1h-3zM592 472q22 0 32 8q-6 -1 -16.5 -2.5t-15.5 -1.5l-2 -2zM145 477v1h-2zM188 469l4 1h-1q-1 1 -2 1l-2 -1zM167 464q1 1 3 1q0 1 -1 1q-1 1 -3 1v-1zM633 459l1 1zM610 454q13 -2 20 4q-16 2 -20 -4zM591 450q14 0 17 4h-19h-1l-2 -1zM376 347q12 37 29 72
q-20 3 -60 7q-26 -52 -36 -73zM628 422q1 0 2 1q0 1 -1 1h-3q0 -2 2 -2zM128 342h2q0 1 -2 1h-3q1 0 3 -1zM105 337q1 0 3 1l-2 2h-2v-1q1 -1 1 -2zM536 328q22 0 31 8l-31 -4q-2 0 -2 -2q1 -2 2 -2zM88 333l1 2l-2 -1zM132 325l4 1h-1q-1 1 -2 1q-2 0 -3 -1zM270 316
q4 2 4 11q-4 -2 -4 -11zM465 316q5 2 5 11q-3 -2 -5 -11zM111 321h3q-1 1 -1 2h-3q0 -2 1 -2zM576 315h1q0 1 1 2zM553 311q13 -3 21 3q-16 2 -21 -3zM258 290q11 10 11 25q-10 -11 -11 -25zM454 290q11 11 11 25q-10 -11 -11 -25zM535 307q12 -2 17 3h-19q-2 0 -3 -1
q4 -2 5 -2zM572 278q1 1 2 1l-1 1h-3q0 -2 2 -2z" />
    <glyph glyph-name="dollar" unicode="$" horiz-adv-x="452" 
d="M501 709q7 -92 -49 -164l-2 -1q-9 -4 -37.5 9.5t-29.5 22.5q6 8 15 21.5t21.5 50.5t8.5 68q0 4 -1.5 11t-2.5 10q-4 13 -12 26q-1 1 -1 2q-13 17 -31 25q-1 1 -2 1q-2 1 -3 1q-16 3 -20 2l-9 -1l-24 -5q-41 -11 -59 -47l1 1v-1l-1 -1q-17 -34 -10 -97l7 -37l1 -5
q1 -5 2 -7q4 -24 7 -31l5 -15q2 -7 17 -56q2 -4 2 -7q4 -10 10 -28q42 -127 44 -157q8 -100 -38 -169.5t-131 -85.5q-8 -77 10 -106q3 -1 5 -5q4 -6 3 -11q-2 -4 -7 -9l-11 -4q-21 -6 -37 -2q-22 4 -45 24q-39 39 -41 122q-96 37 -106 155q-3 37 25 91q9 17 32 19
q24 1 50 -11.5t26 -25.5l-1 -4q-1 -4 -13.5 -22.5t-23 -43.5t-7.5 -48q3 -24 21 -42q22 -22 64 -19q45 4 71 30q38 38 33 125q0 8 -1.5 28.5t-2.5 32.5q-1 16 -17 75l-4 11q-7 18 -11 33l-16 42q-51 137 -36 198q16 63 63 114t112 57q17 1 32 0q1 4 4 10t3 7q1 3 5.5 14.5
t5.5 15t4.5 14t4 15t2.5 14t2 16.5t-0.5 16.5t-2.5 18.5q-1 4 1.5 7.5t6.5 4.5q31 6 55.5 -17.5t27.5 -58.5q3 -1 0 -33.5t-12 -66.5v-1l-6 -21q50 -46 54 -95zM388 897q-1 1 1 5q0 3 -1 3q0 -1 -2 -5l1 -2zM383 877v1q0 2 -2 4l-1 -1v-2v-7v-3q0 2 1 3t1 2zM376 849l3 18
q-4 -2 -10 -17q0 -1 -0.5 -2.5t-1.5 -2.5q4 0 7 -1l1 4q1 0 1 1zM201 759q-1 -2 -2 -6.5t-2 -6.5h1l3 12l6 5l5 7l-6 -6zM235 760v2l-1 -2v-1q-4 0 -5 -4h-1l1 -1q-3 1 -5 -4q5 -1 5 4h1l-1 1q3 3 5 4zM215 732q12 5 9 17q-10 -6 -9 -17h-1l1 -1q-10 -5 -14 -27h-1v-2
q-2 -2 -2 -3l2 -2v5l1 1v1q13 10 14 27q-1 1 0 1zM192 742q3 1 4 4q-3 -1 -4 -4v-2q-10 -6 -9 -16h-1v-1q-17 -16 -17 -44l-1 -1v-1q-3 -3 -4 -5q1 -1 3 -5q0 1 1 2t1 2l-1 6l1 1v1q14 18 17 44h1v1q7 4 9 16h1zM435 650l4 4v3l-2 -2q-1 -1 -1 -2q-1 -2 -1 -3zM435 647
q1 0 1 1v1l-1 -1v-1l-2 -4q0 -1 2 -3v7zM429 626v2l-1 -1zM449 626v2q-1 -1 -2 -1l1 -3l-2 -4q-1 -3 -2 -5h-1l1 -1q-4 -2 -4 -9l-1 -1v-1l-1 -1l1 1q1 0 1 1v1q4 1 4 9h1l-1 1q4 3 4 9zM-3 290v2l-1 -1v-1q-10 -2 -10 -16q8 3 10 16h1zM15 270q3 3 3 6q0 2 -1 2
q-1 1 -2 0.5t-1 -1.5q-1 -1 -3 -7v-2q2 0 4 2zM-18 263q7 1 5 10q-6 -3 -5 -10h-1l2 -1q-7 -4 -9 -21q1 -1 1 -2q2 0 2 1q8 13 6 22zM262 233l-2 -1v-1q1 -1 1 -2l1 2v2zM257 214v-2l2 3q0 1 -1 1v-1zM252 198q-2 -3 -1 -4q3 0 3 2q1 1 0 3l-1 1zM248 181q3 2 3 11h1l-1 1
v-1q-6 -5 -3 -11h-1l-1 -1q-5 -4 -4 -8q3 4 4 8q1 0 2 1zM272 183h-2l1 -3zM259 159l-4 -3h-1v-2q0 1 1 1v1q4 0 4 3q0 1 1 2v1q7 2 9 14h1v3q0 -1 -1 -2v-1q-9 -1 -9 -14l-1 -1v-2zM237 163q3 4 7 7q-1 0 -1 1v-1q-2 -1 -7 -6v-1h1z" />
    <glyph glyph-name="percent" unicode="%" horiz-adv-x="648" 
d="M158 -30q-16 0 -32 9q-21 12 -33 36q-37 71 24 208q13 30 37 72q37 63 69 102q26 34 40 51v1l3 3v1l1 1h1q4 7 10 13l25 30q4 4 10 12q18 22 51.5 60.5t41.5 47.5q8 8 11 12l7 8l5 5q1 1 14 17l24 28q9 12 10 13q3 3 4 5l12 14q2 4 4 6q9 11 39 53q1 1 7.5 10t7.5 10.5
t6.5 9.5t6.5 11t5 10.5t5.5 12t3.5 11.5t3 14t2 15q0 11 11 9q28 -6 43 -33.5t10 -60.5q1 -6 -9 -32t-26 -54v-1q-24 -40 -45 -68q-1 -1 -2.5 -3.5t-2.5 -3.5l-9 -12q-5 -7 -9 -12q0 -1 -2 -2.5t-2 -2.5q-1 -2 -4 -5q-1 -1 -2.5 -3.5t-2.5 -3.5q-3 -4 -22.5 -29.5
t-30.5 -38.5q-19 -25 -59 -73q-1 -2 -4 -5l-6 -7q-14 -18 -15 -20l-9 -10l-15 -20h-1q-2 -4 -8 -10q-3 -6 -8 -11q-4 -6 -6 -8q-2 -3 -6 -7.5t-4 -5.5q-4 -6 -7 -9q-38 -52 -79 -124q-7 -12 -21 -38q-72 -136 -56 -185q0 -1 1 -3t1 -3q3 -6 0 -11q-3 -6 -8 -6h-10zM573 795
l3 3v4q-2 -2 -3 -4v-3zM214 492q-46 -24 -89 12q-4 3 -7.5 7t-8 8.5l-7.5 7.5q-34 32 -32 81q2 36 18 67q22 45 66 82q23 20 73 34q32 9 75 -7q14 -7 28 -28q5 -9 -3 -15q-8 -5 -2 -16q20 -31 8 -79q-20 -80 -86 -131q-18 -15 -33 -23zM559 772l2 2l1 1q2 2 2 3l1 1l-1 4
l-2 -2q-1 -1 -1.5 -3.5t-0.5 -3.5t-1 -2zM172 269l4 4q0 1 2 3q0 1 1 2l2 4q2 4 6.5 10t6.5 10q14 24 28 43l7 10l8 11q1 1 1 2q12 16 18 23q3 5 11 15q24 31 32 40l1 1v1q1 0 1 1q61 75 149 178q1 1 14 17q1 2 5 6t10 12t9 11l6 7q0 1 2 2.5t2 2.5q27 33 34 43l9 12
q0 1 1 2l9 12v1q2 3 7 15q-3 0 -5 -2t-4.5 -6t-3.5 -5q-9 -11 -27 -35l-1 -1l-8 -11q-5 -7 -15 -19q-1 -2 -4 -5v-1q-5 -5 -7 -8q-8 -10 -11 -13l-1 -2q-1 -1 -8 -9t-11 -13q-2 -3 -7 -8q-2 -2 -2 -3q-1 0 -1 -1q-4 -4 -6 -7l-3 -3q-3 -3 -4 -5q-7 -7 -15 -17
q-15 -17 -56 -67l-38 -45l-28 -34l-2 -2q-2 -2 -3 -4l-6 -7q-1 -2 -4 -5l-9 -12l-4 -4q-13 -17 -19 -25l-9 -12q-2 -2 -5.5 -6.5t-4.5 -7.5l-7 -9l-9 -15q-1 -2 -4 -5q-4 -6 -5 -9q-7 -9 -12 -20q-1 0 -1 -2q-8 -13 -17 -31q0 -1 1 -3v-2zM556 725q1 0 2 1l1 1q0 3 -1 4
l-1 -2q-1 -2 -1 -4zM547 714q5 0 7 9q-5 -1 -7 -9zM166 549q7 0 10 1t7 5q51 38 84 99q9 17 15 56q-4 8 -5 8q-5 2 -9 -2l-12 -9t-14 -11t-10 -10q-45 -57 -60 -109q-1 -2 -2.5 -6t-2.5 -7.5t-1 -7.5v-7zM131 698q9 4 9 16q-10 -8 -9 -16zM236 321l2 1q1 2 3.5 5.5t5.5 6.5
l4 6l7 8q1 1 2.5 3.5t2.5 3.5l2 2l9 12q2 2 6 7.5t5 6.5q5 5 7 8l2 2l21 27l1 1q8 10 11 13q1 1 2.5 3.5t2.5 3.5h1q0 1 1 2q4 6 12.5 16.5t9.5 11.5q4 4 10 12q1 0 1 1q13 16 35.5 43t31.5 39l13 16l18 21q13 18 27 33q0 1 1 1q6 8 14 18l26 34q10 13 12 20h1v4
q-1 -1 -2.5 -2t-2.5 -2.5t-2 -2.5q-8 -9 -21 -24.5t-17 -20.5q-13 -17 -41 -49q-5 -8 -11 -14q-33 -39 -56 -69q-4 -4 -12 -14l-12 -15q-11 -13 -44 -55v-1q-1 0 -1 -0.5t-1 -0.5l-10 -14q-2 -1 -4 -5l-3 -3q-2 -2 -6 -8t-7 -9l-2 -2l-4 -6q-12 -14 -12 -15l-1 -2l-3 -3
t-1 -2q-9 -12 -11 -15l-7 -10l-4 -6v-1l-1 -2l-2 -2l-8 -15v-1zM175 710h1l-1 1v-1zM169 704l4 4q-4 0 -4 -4zM136 656q18 17 32 46q-22 -14 -32 -46zM114 671q14 9 16 26q-16 -7 -16 -26zM202 677l3 9q-5 -3 -3 -9zM196 672l5 3q-3 1 -5 -3zM103 650q13 6 11 20
q-13 -4 -11 -20zM185 655q8 4 10 15q-8 -4 -10 -15zM560 666h1l1 1v2l-1 -1v-1zM134 648q1 1 1 2v4l-3 -3q0 -1 2 -3zM180 645q0 2 2 5t2 4q-4 -2 -4 -9zM549 649q3 2 3 3v2zM100 642l2 2q1 2 1 4q-3 0 -3 -2v-4zM302 334l4 4l2 2l1 2q1 1 1 2q2 0 2 2q17 21 27 35q1 1 1 2
q2 0 2 2q1 1 1 2l3 3v1h1l19 24l2 3q9 11 9 12q55 68 80 100q1 1 8 11q10 13 11 14l26 33l7 9l7 10q6 6 10 13h1l3 5q1 0 1 1q5 5 8 11q3 3 4 5q1 1 2 2.5t2 2.5q-8 -8 -18 -21q-4 -5 -14 -17l-20 -24t-19 -24q-98 -119 -101 -125l-1 -1l-23 -29v-1l-4 -6l-18 -24l-2 -2
q0 -1 -2 -3q0 -1 -2 -3q-4 -6 -6 -8l-2 -4l-3 -3l-1 -2l-4 -6q0 -1 -2 -3q0 -2 -2 -4q0 -1 -1 -2v-1zM177 642q1 0 2 1h-1zM466 77q-49 -26 -90 12q-20 18 -29 28q-18 17 -21 43q-10 60 25 123q6 10 13 20.5t15.5 23t13.5 19.5q4 7 11 12q10 7 13 -8q10 6 14 7q5 3 10 1
q3 -4 17 -4q28 1 55 -11q51 -25 52 -77q1 -60 -30 -117q-19 -35 -42 -54zM402 323q2 6 4 9q-4 -2 -4 -9zM289 317q2 4 2 5q0 -1 -2 -3v-2zM396 318l5 3q-3 0 -5 -3zM232 313l2 3q0 2 1 3l-3 -3v-3zM391 306q1 2 2 5t2 4q-4 -2 -4 -9zM419 312l1 1zM402 285q14 9 15 25
q-14 -9 -15 -25zM385 301q1 1 2.5 2t2.5 2q-3 0 -5 -4zM278 300l2 2v2l-1 -1v-1q-1 0 -1 -2zM425 162q2 -1 8 2q40 37 54 83q9 28 6 45q-2 13 -11 7q-18 -9 -25 -21q-29 -50 -35 -104v-6zM380 289q5 4 4 10q-6 -3 -4 -10zM369 274q6 1 10 14q-8 -1 -10 -14zM396 273
q5 2 5 10q-5 -1 -5 -10zM363 262q7 2 5 10q-5 -2 -5 -10zM391 264l2 4l2 4q-4 -1 -4 -8zM358 247q5 3 5 14q-5 -4 -5 -14zM356 239q0 1 0.5 1t0.5 1v4q-2 -2 -2 -3q-1 -1 0 -2zM495 219q2 2 2 3v2zM489 208q4 1 4 7q-3 -6 -4 -7zM484 198q4 1 4 7zM479 187l3 9q-5 -3 -3 -9z
M500 186q4 2 4 8q-1 -4 -4 -8zM495 175q4 2 4 10q-6 -2 -4 -10zM489 170q4 0 5 4q-5 0 -5 -4zM486 166l1 2h-1v-2z" />
    <glyph glyph-name="ampersand" unicode="&#x26;" horiz-adv-x="788" 
d="M264 -30q-70 0 -123 24.5t-79.5 64.5t-37.5 89t3 101t43 98t82 82t120 50q12 3 24.5 4.5t19 2.5t12 2t7.5 3t2 5l-3 4q-3 5 -8 13t-11 19t-12.5 24t-11.5 27t-8.5 29.5t-4.5 29.5q-6 111 67.5 180t161.5 69q63 0 94 -33t33 -85q3 -63 -28.5 -122.5t-68.5 -59.5
q-15 0 -42 25q-2 2 -2 4q0 5 3 5q45 6 68.5 49.5t20.5 93.5q-2 33 -15 55t-35 22q-45 0 -78 -40.5t-46.5 -96.5t-10.5 -113q2 -49 18 -82t42 -37q27 -3 42.5 -24.5t10.5 -37.5q-4 -18 -17 -18q-11 0 -48.5 16t-67.5 16q-68 0 -119.5 -25t-79 -65t-40 -82.5t-10.5 -83.5v-12
q3 -54 40.5 -87.5t91.5 -33.5q71 0 142 60.5t119 185.5q9 23 33.5 12.5t25.5 -29.5q2 -27 -18.5 -74.5t-58 -98.5t-102.5 -88t-140 -37zM394 803q11 6 13 20q-1 -1 -5.5 -5t-6 -7t-1.5 -8zM367 803q8 8 8 15q-8 -6 -8 -15zM361 798l4 4q-3 -1 -4 -4zM388 797h1q4 0 4 5h-1
q-4 0 -4 -5zM351 781q9 5 9 15q-10 -3 -9 -14v-1zM378 781q10 3 10 13v2q-10 -4 -10 -15zM341 765q9 1 9 15q-9 -3 -9 -15zM374 770q4 3 4 8q0 1 -1 2q-4 -1 -4 -7q0 -2 1 -3zM368 765h1q3 0 4 3zM336 753q5 3 5 7q0 3 -1 4q-5 -3 -5 -7zM366 758q0 3 1 4q-2 0 -2 -3z
M321 722q14 14 14 30q-14 -10 -14 -30zM316 711q5 1 5 9q-5 -1 -5 -9zM315 703v6l-2 -3l1 -1q1 -1 1 -2zM333 150q-24 7 -43 26.5t-20 41.5q-2 39 27.5 67t75 43t99 36.5t98.5 45.5t74 71t26 112q0 1 -3 23t-4 23q-1 12 25 10q45 -5 67 -46q11 -21 13 -49
q3 -61 -16.5 -104.5t-53.5 -67.5t-76.5 -41t-87 -31t-83.5 -30.5t-68 -47t-38 -73.5q0 -3 -3.5 -6t-7.5 -3h-1zM676 504l4 3q-1 1 -1 2q-2 -1 -3 -5zM672 492q6 1 4 5v5q-5 -3 -5 -9q0 -1 1 -1zM652 460q15 12 19 30q-16 -11 -19 -30zM690 470q3 1 3 6v3zM660 427
q18 16 19 26q10 3 10 14v2q-11 -4 -10 -16q-17 -8 -19 -26zM647 454q3 0 4 4zM642 449q3 0 3 3zM711 429v2v-2zM133 361q4 0 4 4q-1 -3 -4 -4zM96 344q9 6 9 16q-9 -7 -9 -15v-1zM118 339h1q2 0 4 5q9 4 9 15v1q-9 -5 -9 -14v-2h-2q-3 0 -3 -5zM90 339h1q4 0 4 4h-1
q-3 0 -4 -4zM80 323q10 3 10 13v2q-8 -4 -10 -15zM107 323q10 3 10 15q-7 -3 -10 -15zM76 311q5 3 4 8v3q-5 -2 -5 -7q0 -2 1 -4zM103 312q6 1 4 7v3q-4 -2 -4 -9v-1zM99 303l3 8q-3 -2 -3 -8zM61 280q11 15 14 30q-16 -10 -14 -30zM56 269q2 3 4 9q-4 -2 -4 -9zM54 262v1
q1 1 1 2q-2 -1 -2 -2zM303 252q5 3 3 8v2q-4 -4 -3 -9v-1zM320 241q9 5 8 14v1q-9 -9 -8 -15zM297 246h1q2 0 4 5h-1q-2 0 -4 -5zM293 236q4 3 4 7q-1 1 -1 2z" />
    <glyph glyph-name="quotesingle" unicode="'" horiz-adv-x="147" 
d="M90 646q-16 -13 -37 -7.5t-39 20t-13 20.5q1 2 6 8t7 10q33 51 46 123q1 9 1 28q0 7 1 11q4 10 26.5 5.5t40.5 -15.5q16 -9 18 -41q1 -45 -17.5 -91.5t-39.5 -70.5zM62 753q4 0 4 3q7 13 7 28q0 2 1.5 6t2.5 7q0 2 -2 4l-1 -1v-3q-1 -4 -1 -13q-9 -10 -11 -31zM84 746
q3 3 4 5q0 1 -2 5l-2 -4v-6zM57 734q6 5 4 16q-6 -5 -4 -16zM73 718q12 10 10 25q-12 -10 -10 -25zM51 722q5 4 5 11q-5 -2 -5 -11zM113 727h1v2zM46 713l4 8q-4 -1 -4 -8zM68 705q6 4 4 11q-6 -1 -4 -11zM56 689q9 4 11 15q-4 -1 -5.5 -3t-3 -6.5t-2.5 -5.5zM100 694l3 5
q-1 1 -1 2q0 -3 -2 -7z" />
    <glyph glyph-name="parenleft" unicode="(" horiz-adv-x="369" 
d="M237 -77q-25 -4 -42 2q-104 35 -134.5 151t12 259t120 280t194.5 228t230 88q19 0 35 -3q15 -3 37 -25q2 -2 -4 -6t-15 -7t-16 -2q-23 2 -57.5 -8t-89 -46.5t-106.5 -94.5t-109.5 -166t-99.5 -248q-66 -217 23 -355q4 -6 14.5 -17t13.5 -15q7 -11 -6 -15zM176 472
q0 3 1 5l-2 -3l1 -1v-1zM161 438l3 2q0 2 -2 4v-1q-1 -1 -1 -2v-3zM155 424q3 1 5 11q-5 -2 -5 -11zM150 407q4 5 4 15q-6 -3 -4 -15zM143 393q5 3 5 12q-5 -2 -5 -12zM138 376q6 4 4 16q-6 -3 -4 -16zM110 387h2l-1 2zM183 375h1l-1 2v-2zM126 346q11 9 11 27
q-14 -9 -11 -27zM103 363q1 2 3 4l-3 3v-7zM100 354q1 1 1 3q1 1 1 4q0 -1 -2 -1t-2 -1l1 -2q1 -2 1 -3zM177 357h2l-1 3zM105 256l3 3l18 72q1 2 0 6.5t-1 5.5q-20 -34 -20 -87zM92 328q2 3 4 9q-1 1 -1 2q-4 0 -4 -2t0.5 -5t0.5 -4zM87 309q3 2 3.5 5t0 6t0.5 6
q-3 -1 -4.5 -3.5t-1.5 -4t1 -5t1 -4.5zM166 321h2l-1 2zM82 285q3 3 3 22q-7 -6 -3 -22zM162 301v3h-1q-1 -1 -1 -2q1 -1 2 -1zM155 278l3 3l-3 3l-1 -1v-2q1 -1 1 -3zM76 261q3 2 4.5 4.5t1.5 5t-0.5 6t-0.5 5.5q-5 -3 -6 -6t0 -8.5t1 -6.5zM73 226q4 6 2 33q-8 -10 -2 -33
zM151 253l1 2h-2zM103 230q2 4 2 5q0 3 -0.5 9t-0.5 10q-4 -4 -4 -19q1 -1 3 -5zM72 177q2 5 1 8q0 12 -2 36q-4 -5 -4.5 -10.5t0.5 -13t1 -10.5q0 -2 2 -5.5t2 -4.5z" />
    <glyph glyph-name="parenright" unicode=")" horiz-adv-x="379" 
d="M-189 -79q-12 0 -36 4q-16 3 -36 25q-2 2 4 5.5t15 6.5t16 3q18 -2 45.5 5.5t68 27t85.5 61.5t90.5 101t91.5 154.5t81 213.5q66 216 -23 354q-4 7 -15 19t-13 14q-4 4 -2 8.5t8 5.5q22 5 42 -1q104 -35 134.5 -151.5t-12 -259.5t-120 -279.5t-194.5 -228t-230 -88.5z
M356 631q4 4 5 10t0 13.5t-1 11.5q0 2 -2 5.5t-2 4.5q-2 -6 -2 -9q2 -22 2 -36zM353 594q6 8 2 34q-4 -6 -2 -34zM324 599q5 5 3 18q0 3 -2 5q-2 -2 -2 -4q0 -3 0.5 -9.5t0.5 -9.5zM276 597h2l-1 3zM303 509q20 35 20 87q-3 0 -3 -2q-3 -11 -6 -23t-6.5 -26.5t-5.5 -22.5
q-1 -4 1 -13zM347 570l3 3t3 4q0 3 -0.5 7.5t-0.5 6.5q-4 -2 -5 -5t-0.5 -9t0.5 -7zM273 569v5l-3 -3q2 -2 3 -2zM342 546q8 5 4 22q-4 -4 -4 -22zM267 548l1 1v2h-2v-2zM336 527q7 2 5 16q-3 -1 -5 -16zM261 529l1 3h-2zM333 513l3 2q0 6 -1 10l-3 -9v-1q1 -1 1 -2z
M290 479q15 10 12 27q-10 -6 -12 -27zM326 492q3 0 4 2q0 1 -1 2l-1 2l-2 -2v-4zM250 493l1 2l-2 1zM324 482v3v3l-2 -3q2 -2 2 -3zM244 475l1 3h-2zM286 461q8 4 3 16q-5 -5 -3 -16zM317 463l1 3h-2zM279 447q7 2 5 11q-2 -1 -5 -11zM274 431q4 2 4 15q-4 -4 -4 -15z
M268 417q5 2 5 12q-5 -3 -5 -12zM266 409q0 2 1 2v4l-3 -3q-1 0 0 -1zM252 377l1 2q-1 1 -1 2v-4z" />
    <glyph glyph-name="asterisk" unicode="*" horiz-adv-x="298" 
d="M200 551q-24 8 -43 35t-17 47q0 3 0.5 7t1 6t0.5 4l-21 -2q-21 -1 -44.5 -1.5t-42 8t-14.5 26.5q47 -4 86.5 10.5t53.5 27.5q15 14 6 33q-14 32 -22 48q-3 7 -11 19.5t-10 15.5l-10 15q-2 2 0 5.5t5 3.5q37 -4 51 -21q10 -12 28 -36q5 -7 11 0q14 19 23.5 46t2.5 45
q-2 4 0.5 6.5t6.5 1.5q40 -2 54.5 -23.5t14.5 -59.5q0 -9 8 -4q31 20 74 18t55 -34q3 -8 -7 -10h-2q-14 2 -28 -1t-25.5 -8.5t-43 -21.5t-59.5 -29q-14 -7 -26 -28q-3 -8 1 -13q18 -29 39 -44.5t36 -18.5t29.5 -10t20.5 -21q2 -2 -3 -5q-8 -10 -23 -6q-19 5 -35.5 12
t-29.5 16t-21 14.5t-19 15t-13 11.5q-3 5 -7 -1q-32 -55 -13 -82q6 -9 -5 -15q-11 -3 -13 -2zM228 797l1 1zM223 788q3 2 3 7z" />
    <glyph glyph-name="plus" unicode="+" horiz-adv-x="460" 
d="M210 118q-45 -16 -77 24q-54 67 4 221q-87 7 -100 -21q-5 -12 -21 5q-24 26 -13 52q20 49 163 33q14 30 30.5 61.5t32.5 60.5t22 40q15 30 13 42q0 1 -0.5 4t-0.5 5.5t1.5 5.5t5.5 4.5t11 1.5q28 1 53 -26t17 -70q-7 -38 -21 -67l-37 -75h1q59 -6 115 14q22 8 38 -9
t12.5 -42t-27.5 -38q-33 -17 -174 3q-17 -32 -28 -61q-14 -34 -20 -77.5t4 -67.5q2 -4 3 -5q2 -4 0 -10.5t-7 -7.5zM141 288l3 4q9 31 17 49l9 19q7 18 31 68q14 29 35 67.5t38 75.5q2 4 2 7v6q-1 -1 -3 -1q-2 -1 -6 -10q-17 -36 -47 -93q-10 -17 -26 -51q-22 -44 -32 -68
l-1 -2q-9 -21 -21 -65v-5zM176 318l2 2q3 2 4 4l15 32q11 26 34 69l31 62q19 37 29 62v8l-4 -4q-25 -47 -65 -127q-12 -24 -33 -69l-5 -12l-3 -8v-1q-4 -12 -5 -18zM316 513q1 0 3 2v4l-3 -2v-4zM226 328q3 0 3 2q6 10 10 20q4 7 7.5 14.5t8 17t7.5 14.5v3.5t1 3.5
q5 4 12 18l21 43q18 37 19 47l-4 -4q-22 -43 -43 -86l-3 -8q-2 -2 -2 -10q-5 -3 -5 -4l-24 -48q-4 -8 -5 -11zM60 417l1 1h2q-1 0 -1 0.5t-1 0.5h-2q0 -1 0.5 -1t0.5 -1zM43 413q1 0 2 1l-1 1h-2zM379 404q18 0 24 8q-4 -1 -12.5 -2.5t-12.5 -2.5q-1 -1 -2 -1q2 -2 3 -2z
M30 409v1h-1zM64 400l3 2q-2 0 -2 1l-2 -1q0 -2 1 -2zM47 396q2 0 3 1l-1 1q-1 0 -2 1v-3zM410 391l1 1zM392 386q11 -2 16 3q-13 2 -16 -3zM378 382q8 -2 13 4h-15h-1l-1 -1q3 -3 4 -3zM406 354h2l-1 2h-2q0 -2 1 -2zM221 316q4 2 4 11q-4 -3 -4 -11zM174 310l1 5l-2 -3z
M210 290q10 10 10 25q-8 -10 -10 -25z" />
    <glyph glyph-name="comma" unicode="," horiz-adv-x="130" 
d="M-87 -75q-27 -16 -58 3q-22 17 -10 29q48 36 78 105q5 10 9 20.5t6.5 16.5t6.5 11q7 9 35 2.5t38.5 -31t-26.5 -81.5q-34 -48 -79 -75zM-49 76q6 3 4 14q-6 -4 -4 -14zM-35 56q5 2 9 18l-1 1h-1q-8 -12 -7 -19zM-54 66q6 1 4 9q-4 -1 -4 -9zM-62 50q2 0 3.5 0.5t2.5 3
t1 3.5v7l-4 -6q-1 -1 -2 -4zM-39 46q6 1 4 9q-6 -1 -4 -9zM-5 37q4 4 4 13q-4 -4 -4 -13zM-44 37q6 1 4 9q-4 -2 -4 -9zM-49 28q0 1 1.5 3.5t2.5 4.5q-2 -1 -4 -8z" />
    <glyph glyph-name="hyphen" unicode="-" horiz-adv-x="443" 
d="M77 338q-4 -13 -15 6q-21 32 -8 62q21 48 125 29q56 -10 84 -14q42 -6 84 16q20 10 32 -20q13 -37 -6 -65q-4 -6 -10 -11q-20 -13 -65 -8t-91 18t-84.5 12t-45.5 -25zM94 420h1q0 1 -1 1h-1q0 -1 1 -1zM81 415q1 1 2 1l-1 1h-2q1 0 1 -2zM324 405q12 0 18 9
q-3 -1 -9 -2.5t-9 -2.5q-1 -1 -1 -2zM72 411v1h-1zM96 402q2 0 2 1l-1 1q-1 0 -1 -0.5t-1 -0.5zM84 397h2v2q-2 0 -2 1v-3zM347 391q1 0 1 2q-1 -1 -1 -2zM334 386q7 -4 11 4q-8 2 -11 -4zM324 382q7 -2 9 4h-10q-1 0 -1 -0.5t-1 -0.5zM344 351q1 0 2 1l-1 1h-2z" />
    <glyph glyph-name="period" unicode="." horiz-adv-x="134" 
d="M-66 -27q-49 13 -44 60q5 42 43 67q29 20 58 12q31 -14 33 -48.5t-26.5 -67t-63.5 -23.5zM-85 57l6 4l2 5q-6 -3 -8 -5v-4z" />
    <glyph glyph-name="slash" unicode="/" horiz-adv-x="420" 
d="M78 -30q-15 0 -32 9q-20 12 -32 36q-17 41 -12.5 88.5t30 104.5t53.5 103.5t59 85.5l39 51l1 1q2 2 2 3l2 2q8 10 11 13q16 20 25 30l10 12q18 22 51.5 60.5t41.5 47.5l11 12q2 3 7 8l18 22q28 33 34 41l5 5q3 3 5 7l6 7q1 2 5 6q2 2 16 21.5t23 31.5q1 1 10.5 14.5
t11 16.5t8 14.5t8.5 18t4.5 17.5t3.5 23q2 11 12 9q28 -6 43 -34t9 -60q3 -18 -34 -86l-1 -1q-14 -26 -44 -68q-1 -1 -2.5 -3.5t-2.5 -3.5l-9 -12q-8 -10 -10 -12q-1 -2 -4 -5.5t-3 -4.5l-6 -7q-54 -72 -111 -141q0 -1 -2 -2.5t-2 -2.5l-6 -7q-14 -18 -16 -20q-4 -6 -8 -10
q-2 -3 -7.5 -10t-8.5 -10q-6 -8 -8 -10l-8 -11q-2 -3 -7 -8q-3 -5 -9 -13l-7 -9q-55 -75 -113 -187t-43 -160l2 -6q2 -7 -1 -11q-2 -6 -8 -6h-10zM493 795l3 3v4q-2 -2 -2 -4h-1v-3zM480 772l3 3l2 3l1 1q0 2 -2 4l-1 -2q-2 -4 -2 -7q-1 -1 -1 -2zM92 269l1 1h1q0 1 1 1
q0 1 1 2q2 2 2 3q1 1 1 2q2 2 3 4l12 20q24 36 29 43q1 2 4 5.5t3 4.5q1 2 3.5 5.5t3.5 5.5l2 2l17 23l12 15q10 14 32 40q0 1 1 2l1 1q33 41 162 195l6 6q19 24 25 30q1 2 4 5l34 43l9 12v2l9 12l1 1q2 3 7 15q-3 0 -5 -2t-4.5 -6t-3.5 -5q-9 -11 -27 -35l-1 -1
q-6 -8 -9 -11q-4 -7 -14 -19q-1 -1 -2 -2.5t-2 -2.5l-1 -1l-17 -21l-2 -2q-12 -14 -18 -22l-10 -11v-1q-4 -4 -6 -7q-2 -1 -4 -3l-3 -5q-7 -7 -15 -17q-38 -44 -56 -67q-26 -30 -38 -45q-2 -2 -28 -34l-2 -2q-2 -2 -3 -4l-6 -7l-5 -5l-9 -12l-3 -3v-1q-3 -4 -10 -13t-10 -12
q-6 -8 -8 -12q-6 -8 -10 -14q-4 -4 -7 -10q-8 -11 -10 -14l-3 -5l-6 -9l-11 -20l-2 -2q-5 -9 -16 -31v-5zM476 725q2 0 2 1h1v1h1l-1 4l-1 -2zM468 714q5 0 7 9q-5 -1 -7 -9zM157 321q4 4 11 13q2 4 4 6t6 8q4 4 6 7q1 1 1 2l10 12l11 14l3.5 3.5t3.5 4.5q0 1 0.5 1t0.5 1
q5 5 22 27l1 1q2 3 6 7.5t4 5.5q4 4 6 7q1 1 1 2q4 4 11.5 13.5t11.5 14.5l10 12v1l68 82q2 4 7 9.5t6 6.5q3 3 44 54l1 1q33 40 41 52q10 13 12 20q1 1 1 4q-3 -2 -8 -7l-146 -177q-4 -4 -12 -14l-12 -15l-43 -55q-1 0 -1 -1t-1 -1l-11 -14l-1 -2l-3 -3q0 -1 -2 -3
q-10 -12 -13 -17l-2 -2q-2 -2 -4 -6l-13 -15q0 -1 -1 -2q-2 -2 -2 -3l-2 -2q-9 -12 -11 -15q-1 -2 -3 -5t-3 -5q-2 -2 -2 -3q-2 -2 -2 -3l-2 -3l-1 -2l-8 -15q0 -1 -1 -1v-1zM481 666q1 0 1 0.5t1 0.5v2q-1 0 -1 -0.5t-1 -0.5v-2zM470 649q2 2 2 3v2zM223 334q2 2 3 4l2 2
l2 2q1 1 1 2l2 2q17 21 27 35q0 1 0.5 1t0.5 1l2 2q0 1 0.5 1t0.5 1l3 3v1l20 24q0 1 2 3q9 11 9 12q21 26 79 100l9 11q5 7 17.5 23t18.5 24l8 9q1 2 4 5.5t3 4.5t4 5.5t6 7.5q2 2 4 6q3 3 9 11q3 3 4 5l3 5q-2 -1 -86.5 -105.5t-85.5 -105.5v-1l-23 -29v-1l-5 -6
q-12 -16 -17 -24l-2 -2l-2 -3q-2 -2 -2 -3q-4 -6 -6 -8q-1 -2 -3 -4q0 -1 -2 -3l-1 -2q-2 -2 -2 -3l-4 -6l-2 -4q0 -1 -0.5 -1t-0.5 -1v-1zM210 317l2 5l-2 -3v-2zM153 313q1 1 1 3q1 1 1 3q0 -1 -1 -1l-1 -2v-3zM199 300l1 1v1h1v2q-1 0 -1 -1h-1v-3z" />
    <glyph glyph-name="zero" unicode="0" horiz-adv-x="671" 
d="M261 8q-180 0 -232 149q-46 130 17 318q58 174 170 286q100 102 202 102q181 0 228 -151q42 -132 -27 -324q-62 -173 -172 -284q-95 -96 -186 -96zM245 62q67 0 137 102.5t111 241t34 240.5q-2 26 -6.5 50t-14 52t-28.5 45t-44 17q-62 0 -132 -86.5t-117.5 -224
t-45.5 -269.5h2q1 -6 1 -16q4 -53 31.5 -102.5t71.5 -49.5zM469 282q6 2 11 14q34 74 53.5 142.5t22.5 99t1 45.5q0 2 -0.5 6t-0.5 5t-2 5q-2 -4 -2 -5q-7 -70 -23 -134t-25.5 -89.5t-34.5 -88.5zM73 365q1 1 2 2.5t2 2.5q10 45 24 85t31 82.5t23 59.5q-5 -1 -26 -44.5
t-40 -99.5t-17 -82q0 -4 1 -6zM122 596l1 1q-1 0 -1 -1zM111 573q1 0 1 1zM106 563q4 1 4 6v2zM190 562l2 3q0 1 -2 3v-1q-1 -1 -1 -2q1 -1 1 -3zM101 552h1q4 1 4 7v1l-1 2q-4 -4 -4 -10zM181 542q6 5 8 18q-9 -3 -9 -15q0 -2 1 -3zM93 531q10 6 8 17v2q-10 -6 -8 -19z
M176 531q4 2 4 9q-4 -1 -4 -6v-3zM88 521q4 1 4 7v2q-4 -1 -4 -9zM171 521q4 2 4 9q-4 -2 -4 -9zM84 510q4 1 4 7v1l-1 2q-4 -3 -4 -9zM167 510q4 2 4 8v2q-4 -2 -4 -8v-2zM36 308q2 0 5 30q9 81 38 150q5 12 5 17q0 3 -1 4q-20 -27 -36.5 -86.5t-13.5 -102.5q2 -12 3 -12z
M126 379q3 3 39 118q1 2 1 12q-6 -3 -36 -95q-6 -18 -6 -31zM509 302q21 17 45.5 91.5t22.5 104.5l-1 1q-13 -48 -30 -96.5t-27 -72.5l-10 -25v-3zM624 464l1 2v2q-1 -1 -1 -4zM619 448q4 2 4 13q-4 -3 -4 -11v-2zM571 324q10 6 28 48.5t20 72.5q-5 -5 -25.5 -58.5
t-22.5 -62.5zM71 354q2 5 1 9q-2 -4 -2 -6t1 -3zM567 313q3 3 3 8zM496 276q13 10 13 25q-11 -6 -13 -25zM465 271q4 3 4 8l-1 1zM486 261q9 3 9 14q-7 -4 -9 -14zM461 261l3 9q-4 -3 -4 -8zM482 250q4 3 4 7v3q-4 -4 -4 -9v-1zM451 245q7 4 9 14q-7 -2 -9 -14zM477 245
q4 0 4 3q-2 -2 -4 -3zM473 235q5 2 3 7v1z" />
    <glyph glyph-name="one" unicode="1" horiz-adv-x="455" 
d="M165 -11q-16 -3 -35 1q-22 5 -42 23q-37 35 -36.5 105.5t21.5 133t50 119.5q3 6 8.5 16.5t10.5 19.5t9 17l1 1v1q1 1 1 2q1 0 1 2h1q6 11 7 13l18 32l7 12q29 49 68 113q7 12 8 13l5 9l13 22l25 43q2 4 3 5t2 3.5t2 4.5l4 7l3 6q20 40 26 54q16 35 17 37
q-99 -56 -170 -124t-76 -141q-2 -32 -33 -28q-35 4 -59 40q-38 57 14 121q7 8 15 16q32 32 112 79t143.5 78.5t67.5 31.5h9q34 -3 55 -32q12 -18 13 -37q1 -4 1 -13.5t-4 -29t-10 -38.5v-1q-9 -27 -28 -68q-1 -4 -4 -7l-12 -26q-3 -5 -5 -10q-1 -1 -4 -7q-69 -129 -78 -146
q-1 -1 -3 -5q-2 -2 -4 -8q-4 -6 -11 -20l-6 -10q-8 -14 -11 -21h-1q0 -2 -5 -11q-2 -3 -6 -11l-2 -4l-2 -4q-1 -3 -3.5 -7.5t-3.5 -5.5q0 -1 -1.5 -4.5t-2.5 -5.5q-37 -75 -68.5 -185t-3.5 -148l4 -4q3 -5 2 -10q-2 -6 -7 -7q-2 -1 -5 -1.5t-5 -0.5zM379 791l3 2q0 1 -1 2
l-1 2l-1 -4v-2zM372 767q1 1 1 3q1 0 1 1l1 2q0 1 0.5 1t0.5 1l-3 3l-1 -2v-9zM104 249q0 1 0.5 1t0.5 1h1q0 2 1 3t1 3q1 1 1 2l1 1v3q2 3 4.5 10t3.5 10q2 6 18 43l5 11l5 10q0 1 1 2q3 8 11 24q6 10 8 16q3 6 23 41v1q1 1 1 2q83 147 117 203q3 6 4 7q12 22 18 31
q0 1 2 5q13 24 24 45l6 12v1l6 13v1q2 4 4 14q-2 0 -4 -1.5t-2.5 -3.5t-1.5 -4.5t-2 -3.5q-12 -24 -19 -36q0 -2 -1 -2q-1 -6 -5 -11q-6 -10 -10 -20q-1 -1 -3 -5l-1 -1q-7 -14 -12 -22l-1 -2l-13 -22q-2 -2 -4 -6.5t-3 -5.5q0 -1 -1 -1l-4 -7l-2 -4l-3 -5l-11 -18
l-18 -31.5l-22 -38.5l-47 -82l-2 -3q0 -1 -2 -3q0 -1 -1 -2.5l-2 -3t-1 -2.5q-2 -4 -3 -5q-3 -4 -7 -12l-2 -4v-1l-5 -10t-5 -9.5t-4 -6.5l-6 -12l-6 -14l-3 -6q-1 -3 -2 -4l-6 -14l-2 -5q-2 -6 -4 -9q0 -2 -2.5 -9t-3.5 -11q-1 0 -1 -2q-9 -26 -9 -31zM380 726q1 1 2 1v2h1
q0 1 -2 3l-1 -2v-4zM374 715q2 0 5 9q-5 -2 -5 -9zM157 310l3 4l4 8l3 6q1 2 2 4.5t2 3.5t4 7l1 2q1 1 3.5 5.5t3.5 7.5q2 2 4.5 7l3.5 7q1 3 5 9q0 1 1 2q5 12 15 28q0 1 1 1q3 7 7 14q2 4 4 6v1q0 1 0.5 1t0.5 1q2 5 7.5 14.5t8.5 14.5l7 12v1q8 14 24.5 43t23.5 43
q2 4 5.5 9.5t4.5 6.5q6 11 16.5 30.5t14.5 26.5l1 1q23 42 28 53q7 18 7 20v4l-6 -8q-13 -23 -34 -60t-30 -53l-40 -71l-8 -15l-9 -16q-15 -27 -30 -57h-1q0 -1 -1 -2q0 -1 -1 -3t-3 -5.5t-3 -5.5q-1 -1 -3 -5v-1l-1 -2q-2 -4 -5.5 -10t-4.5 -7q0 -1 -1 -3l-3 -6
q-8 -13 -8 -16q-2 -2 -3 -4v-1q-1 -1 -1 -2q-6 -12 -7 -15l-5 -10q0 -2 -1 -3v-1l-1 -2l-1 -1v-2v-1l-1 -2q-1 -3 -4 -13v-1zM400 676q0 1 1 2q0 1 -1 2q0 -1 -1 -2l1 -1v-1zM392 660l2 2v2zM59 653l-1 7q-4 -2 -5 -4q-16 -23 -20 -53l1 -5q4 3 25 55zM68 609h2q2 2 3 4
q14 28 20 41q1 3 -1 5q-2 0 -4 -2q-21 -25 -20 -48zM220 334q2 2 3 4l1 1v2l1 1l1 2l2 3l18 36l1 1l1 1v2l1 1l2 4v1l14 25l1 1v2l7 12l55 104q2 3 6 11q5 9 13.5 26t11.5 22q2 4 6 10q1 4 5 10l6 13q1 0 1 1l3 5q4 8 5 12l6 10q-3 -1 -61 -107.5t-61 -112.5h-1l-16 -31
l-3 -6l-12 -25q0 -1 -1 -2v-1l-1 -2l-2 -3q-2 -6 -4 -8q0 -1 -1 -3v-1l-2 -4q0 -1 -1 -1q0 -3 -1 -4v-1l-1 -1l-1 -1v-2q-1 -2 -1 -4q0 -1 -0.5 -1t-0.5 -1v-1zM135 643l2 2q0 1 -1 2q0 -3 -1 -4zM112 598q1 0 2 1l2 1l18 40q-3 0 -4 -1q-17 -22 -18 -41zM66 602v5v-1l-1 -2
q-1 0 -0.5 -0.5zM108 593q-1 -1 0 -2q1 -2 3 1v5q-2 -2 -3 -4zM212 317q0 3 1 4l-2 -2v-1q0 -1 1 -1zM154 301q1 1 1 2q0 2 1 3l-1 -1q-1 -1 -2 -1v-1q1 -1 1 -2zM205 300v1h1v1v1l-1 1v-1l-1 -1q0 -1 1 -2z" />
    <glyph glyph-name="two" unicode="2" horiz-adv-x="657" 
d="M347 -13q-37 0 -103.5 37t-108.5 37q-57 0 -93 -18q-4 -2 -7 -2q-12 0 -20 14.5t-5 37.5q5 41 42.5 86.5t94.5 90.5t118.5 92t126.5 110t106 125q74 111 80 166q7 50 -43 50q-67 0 -144.5 -60.5t-123.5 -146.5t-29 -152q1 -3 1 -8q-1 -5 -9 -11t-15 -6q-18 0 -39.5 22.5
t-32.5 67t11 110.5q34 103 131.5 176t209.5 73q79 0 119.5 -47t30.5 -131q-8 -67 -41.5 -131.5t-77.5 -113.5t-100.5 -98t-104.5 -82.5t-97 -68.5t-70 -55q0 -1 -1 -2t-1 -2q0 -4 7 -6q43 -9 103 -41.5t87 -32.5q31 0 58 33t38 73q1 3 6 3q33 0 34 -42q2 -53 -38.5 -100
t-99.5 -47zM364 826q1 0 1 1v1q0 -1 -1 -2zM353 821h2q4 0 8 4h-3q-4 0 -7 -4zM391 815h1q3 0 18 10h-4q-11 0 -15 -10zM238 727q6 2 8 4q36 37 98 81q1 1 2.5 2t3 3t2.5 3q-15 -2 -64 -40t-50 -51v-2zM287 737q8 3 97 70q2 2 6 8h-3q-8 0 -51.5 -31t-48.5 -47zM395 774h2
q8 0 12 10q-11 -4 -14 -10zM374 758q15 2 20 15q-15 -4 -20 -15zM369 753q4 0 4 4q-4 0 -4 -3v-1zM348 737q12 1 20 15q-14 -2 -20 -15zM281 732q3 0 5 5q-3 0 -5 -5zM342 732h1q4 0 4 4v1q-3 0 -5 -4v-1zM337 727q4 0 5 4q-4 0 -5 -4zM222 707q12 7 15 19q-11 -2 -15 -19z
M325 716q3 0 4 1q4 6 7 8q-10 -4 -10 -7q-1 -1 -1 -2zM496 555q2 1 4 8q0 -1 -2 -3.5t-2 -4.5zM150 246h1q4 0 105 79.5t121 96.5q37 30 73.5 71.5t37.5 53.5l1 1l-1 -1q-37 -41 -56 -61.5t-51 -48.5t-44 -38t-73 -58t-101 -80q-12 -10 -13 -15zM87 153q2 2 6.5 5.5t6.5 5.5
q38 38 128.5 107.5t157 122.5t69.5 71q-41 -39 -295 -235q-23 -18 -47.5 -43.5t-25.5 -32.5v-1zM453 403q12 1 15 15q-13 -5 -15 -15zM447 398h1q4 0 4 4v1q-3 0 -5 -5zM442 393q4 0 5 4h-1q-4 0 -4 -3v-1zM374 336q18 7 31 25q20 9 36 31q-19 -8 -36 -31q-19 -8 -31 -25z
M353 320q12 1 20 15q-14 -2 -20 -15zM332 304q15 3 20 15q-14 -2 -20 -15zM316 294h2q8 0 13 9h-1q-8 0 -14 -9zM296 278q16 4 19 15q-15 -6 -19 -15zM282 267q8 0 13 10h-1q-8 0 -14 -9zM275 262q4 2 4 5q-4 -2 -4 -5zM260 252q10 0 14 9h-1q-9 0 -13 -9zM254 246q4 2 5 5
q-5 0 -5 -4v-1zM58 153h1q2 0 10 8q36 44 75 77q4 4 5 8q-16 -6 -51 -42.5t-40 -50.5zM239 236q9 0 14 10h-1q-9 0 -13 -10zM233 231l4 4q-3 0 -4 -4zM218 221q10 0 14 9q-10 0 -14 -9zM212 216q3 1 4 4q-3 -1 -4 -4zM197 205q9 0 15 9h-2q-8 0 -13 -9zM192 200l3 4
q-3 -3 -3 -4zM176 189h1q7 0 14 10h-1q-7 0 -14 -10zM171 184q4 2 4 4zM145 164q13 1 24 19q-14 -4 -24 -19zM139 158q4 0 5 4q-1 0 -2.5 -2t-2.5 -2zM134 153q4 0 4 4q-4 0 -4 -4zM47 138q8 3 10 12v2q-7 -4 -10 -14zM81 148l4 4q-2 0 -4 -4zM131 149l2 3q-3 0 -3 -1t1 -2z
M41 127q5 3 5 8v1q-3 -1 -5 -7v-2zM430 106q2 3 4 9q-3 -4 -4 -9zM419 90q6 3 10 14q-8 -3 -10 -14zM414 85q3 0 4 4zM411 82q0 1 1 2l-1 -1v-1zM422 65l7 9q-1 1 -1 2q-8 -6 -9 -10q1 -1 3 -1z" />
    <glyph glyph-name="three" unicode="3" horiz-adv-x="751" 
d="M258 -12q-168 0 -225 112q-42 83 -9 185q29 88 93 122q27 14 55 14q23 0 38 -13t14 -25q0 -3 -2 -5q-1 -1 -12.5 -12t-23.5 -26t-26 -37.5t-25 -56.5t-15 -74q-8 -69 22 -101t81 -32q69 0 126 45.5t86.5 113t26 152t-46.5 155.5q-11 28 -7 46.5t13 31.5q30 39 73.5 90
t71.5 83l29 31q0 3 -1 4q-13 5 -33 7q-52 3 -94 -1t-68.5 -14t-46 -23.5t-29 -30t-15 -32.5t-5 -31.5t1.5 -27t3 -20.5l2 -8q-1 -5 -9.5 -11t-17.5 -5q-28 2 -46.5 57.5t-11.5 97.5q5 32 21.5 56.5t41 38t48.5 22t55.5 11.5t50 3.5t42.5 -0.5l24 -1q9 -1 30 -2.5t31 -2.5
q30 -1 50.5 -0.5t32.5 2.5l11 1q14 0 28.5 -12t24 -26.5t17 -28t8.5 -14.5v-2q-3 -26 -63 -91.5t-119 -123t-60 -62.5q0 -3 1 -4q60 -73 86 -141t20 -119t-31.5 -95.5t-65.5 -75t-85.5 -52.5t-88.5 -32t-77 -10zM332 842q1 0 1 1v1q0 -1 -1 -2zM280 809q14 5 50 32
q-27 -1 -49 -30q-1 -1 -1 -2zM315 802l31 16q4 4 10 8q-3 4 -13 -1q-15 -8 -24 -16q-2 -1 -4 -7zM275 804q4 0 5 4q-3 1 -5 -4zM312 800q1 0 1 1zM362 788h3q1 0 1 1l1 2h-2zM434 566h2l6 5q71 89 182 203q8 8 11 12q1 1 0.5 2.5t-1.5 1.5q-2 2 -4 0q-12 -10 -14 -12
q-86 -91 -102 -109q-13 -15 -37 -44t-30 -36q-5 -7 -13 -21v-2zM353 780q1 1 2.5 2t2.5 2.5t2 2.5q-1 -1 -4 -2t-5 -2l-2 -2q4 0 4 -1zM624 739q3 1 4 4zM590 703q11 6 32 31q1 1 1 4q-22 -20 -31 -29q-1 -1 -1.5 -3t-0.5 -3zM585 697q3 0 5 5q-5 0 -5 -5zM545 656
q4 1 8 3.5t6 5t5.5 6.5t5.5 6q13 13 14 19q-22 -13 -38 -38zM622 672q2 0 4 3q-2 -1 -4 -3zM594 641q16 14 23 22q1 0 3 7q-16 -14 -23 -22q-1 -1 -2 -4q-1 -2 -1 -3zM512 620q15 7 33 33v2q-23 -13 -33 -35zM588 635q3 3 5 4q-3 0 -5 -4zM583 630q1 3 4 4q-4 0 -4 -4z
M577 625l4 4q-3 -1 -4 -4zM490 594q17 8 21 24q-17 -9 -21 -24zM566 614q4 0 4 4zM533 578q9 9 29 27l3 8q-11 -6 -32 -31v-4zM484 588q3 0 5 5q-5 0 -5 -5zM468 568q12 7 15 19q-12 -6 -15 -19zM527 573q3 1 4 4q-3 -1 -4 -4zM522 568l4 4q-4 -1 -4 -4zM464 565l1 1h1h-1
q0 -1 -1 -1zM516 562q4 2 4 4zM511 557q2 0 4 4zM505 552q4 0 4 4zM494 536q10 8 10 15q-10 -7 -10 -15zM76 270l2 1q1 0 1 1q28 46 41 69q1 2 1 7q-32 -29 -46 -73q0 -4 1 -5zM82 339q1 0 1 1zM33 240q1 1 2 2.5t2 2.5q41 83 43 92q-34 -34 -47 -92v-5zM154 323l2 1
q1 0 1 1q1 1 -1 4zM130 282q14 15 23 39q-18 -11 -23 -39zM127 274l2 6q-1 0 -3 -2v-2q1 -1 1 -2zM386 89q5 0 7 2q30 30 46 61q1 1 1 3v2q-3 0 -4 -1q-4 -5 -50 -65v-2zM394 68q3 0 4 1q34 20 54 52q1 1 1.5 4t0.5 4q-17 -16 -50 -49q-2 -2 -5 -6t-5 -6zM475 84q6 0 8 2
q12 10 18 16q3 3 7 10t6 9q-4 0 -7 -1.5t-6 -6t-4 -5.5q-2 -2 -7.5 -6.5t-9 -8.5t-5.5 -9zM381 84q5 -2 5 4q-5 2 -5 -4zM469 78q5 2 5 5q-3 0 -5 -5zM376 79q2 0 4 3z" />
    <glyph glyph-name="four" unicode="4" horiz-adv-x="659" 
d="M358 -13q-16 -3 -35 1q-23 5 -42 24q-34 32 -36 95t15 121t44 116q-20 -3 -90.5 -19t-106.5 -18q-39 -2 -66.5 16.5t-29.5 46.5q-3 52 24.5 102t66 86.5t97.5 98.5t99 120q15 22 18.5 46t4 35.5t8.5 11.5q16 1 33 -13t19 -45q2 -40 -23 -91t-62.5 -98t-75 -92.5
t-63.5 -86t-24 -65.5q0 -3 1 -4h4l38 -1q36 2 152 19l16 30l1 1l1 1v2l2 2q1 2 3.5 6.5t3.5 7.5l18 31q7 12 8 13q41 70 68 113q1 2 8 14q0 1 1 2l3 6q3 4 7.5 11t6.5 11q3 6 11.5 20.5t12.5 22.5l3 6q1 1 2.5 3.5t2.5 3.5q1 4 4 8q0 2 3 5l26 55q1 2 5 10.5t5 10.5t4 9.5
t4 11t3 10t2.5 11t1 11t-0.5 13t-2 13.5q-3 10 9 10q30 1 52.5 -19.5t24.5 -49.5q3 -5 -0.5 -29.5t-12.5 -52.5v-1q-7 -22 -28 -68q-1 -4 -4 -7l-6 -13q-3 -8 -6 -12l-5 -10q-3 -4 -4 -8q-69 -129 -78 -146q-2 -4 -3 -5l-5 -8l-11 -20l-6 -11q-1 -2 -5 -9.5t-6 -10.5v-1
q-3 -5 -5 -10q-4 -8 -6 -11l-5 -9l-6 -13l-5 -9q-38 -80 -68.5 -188t-2.5 -146q2 -4 3 -5q3 -3 3 -10q-2 -5 -7 -7q-2 -1 -5.5 -1.5t-5.5 -0.5zM573 791l3 3l-1 2l-1 2v-2l-1 -2v-3zM314 773q3 1 3 6q0 2 -1 3q-3 -3 -3 -7zM566 768q0 1 1 2l1 1v1l1 2l1 1q0 1 -3 4
q0 -1 -1 -3v-8zM309 767h1q3 0 3 5q-4 0 -4 -5zM249 685q1 0 2.5 0.5t2.5 1.5q54 58 55 79q-7 -6 -31 -38t-29 -43zM297 248l1 1v1h1q0 1 1 3q1 1 1 3q1 1 1 2v2q1 1 1 2q2 3 4.5 10t3.5 10l18 43l5 11q2 5 5 10q0 2 1 2q2 4 5.5 12t5.5 12q1 2 2.5 4.5t2 4t1.5 3.5l2 4
l23 42q0 1 1 1v1q42 75 117 204q1 1 4 7q14 24 18 32l3 4q3 5 11.5 21t12.5 24l6 13v1l6 13v1q2 4 4 14q-3 -1 -5 -3t-3 -6t-2 -5l-19 -36q-1 -1 -1 -2q-2 -3 -6 -11q-8 -16 -10 -19q0 -3 -2 -5l-1 -1q-2 -4 -6.5 -12t-5.5 -11l-1 -1q-6 -11 -14 -23l-6 -12q-1 0 -1 -1
l-4 -7q-1 -2 -3 -4q-2 -4 -2 -5q-1 -2 -11 -18q-4 -7 -41 -70l-27 -48q-4 -6 -11 -18.5t-9 -16.5q-1 0 -1 -2l-3 -4l-4 -8l-3 -5l-7 -12q0 -2 -2 -4q-12 -23 -14 -26l-3 -8l-3 -4q-1 -4 -5 -12l-1 -1v-2l-5 -9l-6 -15q0 -1 -2 -5l-3 -9q-2 -3 -7 -20q-1 0 -1 -2
q-9 -27 -9 -31zM306 723q11 5 11 19v1q-11 -13 -11 -19v-1zM574 727q1 0 1 1h1v1h1q0 1 -2 3q-1 -1 -1 -2v-3zM568 715q3 1 5 10q-5 -3 -5 -10zM88 453q41 55 97 119t87 99.5t31 43.5q-1 1 -1 2q4 0 4 4v1h-1q-3 0 -3 -4v-1q-9 -7 -10 -9q-24 -32 -79.5 -92.5t-91 -103
t-34.5 -56.5q0 -2 1 -3zM350 307q2 5 7 14l3 6l5 8l3 7l2 3l6 12l8 15l5 9l1 1q10 18 15 28l1 1v1l7 13l4 7v1l1 1q6 10 16 30q3 4 7 12q1 0 1 1q31 57 48 86q3 6 9 16t16.5 29t15.5 28v1q22 39 29 54q7 16 7 19v4l-6 -7q-14 -26 -37 -67t-27 -47l-40 -71q-6 -10 -9 -16
q-6 -10 -8 -15l-31 -57v-1l-1 -1q-1 -1 -3.5 -6t-4.5 -8l-3 -6q-1 -1 -1 -2l-9 -18l-2 -3q-2 -4 -3 -5l-8 -16q-2 -4 -2 -5l-2 -2q-4 -10 -7 -16q0 -1 -1.5 -4.5t-2.5 -5.5l-2 -3q0 -2 -1 -3q0 -2 -1 -3q0 -1 -1 -2q-1 -3 -4 -14v-3zM244 680h1q3 0 3 3v2q-4 -2 -4 -5z
M594 677q0 1 1 1q0 1 -1 2q0 -1 -1 -2zM240 675l3 4q-3 -1 -3 -4zM256 599q4 0 4 4v1h2l1.5 1.5l2.5 2.5t5 5.5t8.5 10t13 16.5t17.5 24q2 3 2 10q-51 -66 -52 -70q-4 -1 -4 -5zM224 658q9 2 16 15q-13 -3 -16 -15zM586 660q2 0 2 3v1zM414 333q0 2 2 4l2 3l1 2q0 1 1 1v1
l1 2l19 36v2l2 2v2q2 2 2 4h1v1l13 25l2 2q1 3 2.5 6l2.5 5l1 2q35 62 56 104q2 3 6 11q5 9 13.5 26t11.5 22q2 4 6 10q1 4 5 10l6 13l1 1q2 4 3 5q4 8 5 12q2 4 3 5q2 4 3 5q-3 -1 -60 -104.5t-63 -115.5v-1q-7 -10 -16 -30l-3 -7l-12 -24l-1 -2l-2 -3l-1 -4q-3 -4 -4 -8
q-1 0 -1 -2t-1 -2l-1 -1v-2l-1 -2q-1 -1 -1 -3l-2 -3q0 -2 -1 -3q0 -1 -1 -2v-2v-3zM219 652l3 4q-3 -2 -3 -4zM207 641q9 0 12 10q-8 -1 -12 -10zM169 601q7 0 11 10q-10 -2 -11 -10zM252 594q2 2 3 4q-3 -2 -3 -4zM152 584q8 1 11 10q-9 -2 -11 -10zM227 566q15 6 24 26
q-12 -7 -24 -26zM148 578q3 2 3 4q-2 -2 -3 -4zM131 561q12 5 15 16q-12 -3 -15 -16zM223 560q5 0 3 4v1q-3 -1 -3 -5zM126 555q4 1 4 5q-4 0 -4 -4v-1zM219 555q2 2 3 4q-3 -1 -3 -4zM42 432l6 6q18 36 46 73.5t31 42.5q-1 0 -3.5 -1.5t-3.5 -2t-5 -4t-9 -9.5t-13.5 -16.5
t-20.5 -25.5q-18 -23 -27 -51q-1 -4 -1 -12zM194 527q12 7 24 26q-15 -7 -24 -26zM189 521q4 1 4 3v2q-4 -2 -4 -4v-1zM149 466q7 4 39 48q1 2 1 6q-1 0 -2 -0.5t-1.5 -0.5t-2.5 -1.5t-4 -4t-6 -8t-9.5 -12.5t-13.5 -19q-1 -2 -1 -8zM145 461q5 0 3 4v1q-3 -2 -3 -5z
M141 456q3 0 3 3zM139 450v3l-1 -2zM405 316l1 4l-2 -2v-1zM348 300v2v1q1 1 1 2q-2 0 -2 -2q-1 0 -1 -1zM398 299q0 1 1 1v3l-1 -1v-3z" />
    <glyph glyph-name="five" unicode="5" horiz-adv-x="783" 
d="M285 -11q-187 0 -250 110q-45 77 -12 169q26 75 86 103q23 11 47 11q26 0 37 -8q13 -7 13 -14q0 -6 -9 -15q-44 -44 -59 -98t-4 -97t39 -72t64 -29q89 0 161 127q62 108 73 227q9 105 -34 120q-6 2 -13 2q-43 0 -93 -37.5t-75 -78.5q-8 -14 -20 -14q-23 0 -43.5 26
t-20.5 54q0 17 11 57t27 85.5t32 89t27 72.5l11 29l-3 12q0 8 9 19q32 37 42 37q38 2 128 -20.5t154 -18.5q34 2 69.5 20t53.5 19q17 1 28 -11t12 -26q2 -28 -31 -54t-86 -29q-95 -5 -234 39q-24 7 -30 -15q-9 -32 -34.5 -93.5t-46.5 -109t-21 -55.5q0 -2 1 -2q7 0 21 9
t17 10q4 2 18 9.5t22.5 11.5t25 7.5t34.5 3.5q89 0 153.5 -56.5t64.5 -161.5q0 -101 -38.5 -181.5t-122 -131.5t-201.5 -51zM745 818h2q4 5 5 5l-2 2h-2zM294 773q1 1 1 4q-1 -2 -1 -3v-1zM429 177q13 10 40.5 62t32.5 103q5 42 5 56q-2 2 -3 2h-1l-1 -1q-3 -6 -8 -35.5
t-20 -76.5t-42 -99q-1 -2 -2 -6t-1 -5zM477 171h1q2 0 4 1.5t4.5 5t5 8.5t8 13t11.5 16q11 16 18 38.5t9 36t2 18.5q0 1 -1 3t-1 3zM102 299q3 0 8 10q0 2 -1 2h-2q-6 -6 -6 -10q0 -1 1 -2zM144 294q5 2 5 9q-3 -2 -5 -9zM70 294l4 8q-4 -1 -4 -7v-1zM70 230q9 12 20.5 37
t11.5 29q0 2 -1 2h-1q-5 0 -18 -25.5t-13 -34.5q0 -5 1 -8zM139 283q5 1 5 8v2q-5 -3 -5 -8v-2zM60 278q4 1 4 7q0 1 -1 2zM134 272q5 1 5 8v2q-5 -1 -5 -7v-3zM54 267q4 1 4 8v1q-5 -2 -5 -7q0 -1 0.5 -1t0.5 -1zM120 238h1q12 22 12 33q-6 -5 -15 -31zM30 197q2 3 8 19.5
t11 31.5t5 16v1l-1 1q-1 -1 -4.5 -3.5t-4.5 -4.5q-15 -24 -15 -58l1 -1v-2zM568 171q1 2 7 10t10 14.5t9 16.5t7.5 21t2.5 22q0 2 -2 6q-3 -5 -18.5 -43t-15.5 -42v-5zM114 224h2l-1 2zM413 150q12 7 15 25q-12 -8 -15 -25zM474 165q1 1 1 4q-1 -2 -1 -3v-1zM409 144
q3 2 3 3v2l-3 -3v-2z" />
    <glyph glyph-name="six" unicode="6" horiz-adv-x="598" 
d="M199 1q-220 0 -184 328q9 81 53.5 175.5t110.5 175t154 134.5t174 54q25 0 43.5 -11.5t17.5 -32.5q-2 -12 -20 -12q-65 -1 -129 -39.5t-105.5 -88t-67 -90t-26.5 -52.5v-3l4 4q4 4 9 8.5t13.5 11t19 12.5t25 12t31 10.5t38 7.5t44.5 3q77 0 138 -74.5t42 -187.5
q-15 -90 -54 -158.5t-93 -108t-114 -59t-124 -19.5zM332 796q2 2 3 4q-3 -2 -3 -4zM315 785q9 0 16 10h-3q-9 0 -13 -10zM364 790q2 0 8 4h-1q-7 0 -9 -3q0 -1 2 -1zM346 780h1q11 0 14 10q-13 -2 -15 -10zM261 738h1q4 0 4 4v1q1 1 4.5 2t4.5 3q5 5 19 16.5t20 19.5
q-6 0 -8 -2q-14 -11 -21.5 -17t-11.5 -10.5t-5 -5t-2 -3.5v-3h-1q-4 0 -4 -4v-1zM292 739q5 0 6 1q39 29 42.5 32t4.5 7q-6 0 -9 -2q-29 -18 -44 -38zM360 749h1q4 0 7 3zM354 744q4 0 4 4q-1 -3 -4 -4zM349 739l3 3q-3 0 -3 -3zM255 733h1q4 0 4 4v1h-1q-4 0 -4 -4v-1z
M333 728q7 0 14 9h-1q-8 0 -13 -9zM251 727q4 0 4 5h-1q-4 0 -4 -4q0 -1 1 -1zM211 686q10 6 19.5 15.5t14.5 16t5 8.5v1q-22 -12 -39 -39v-2zM184 655q18 12 26 30q-16 -8 -26 -30zM172 639q10 5 11 14v1q-10 -3 -11 -13v-2zM155 619q10 2 16 19q-10 -2 -16 -19zM144 603
q10 3 10 13q1 0 1 2q-9 -4 -11 -15zM138 592q5 2 5 8v2q-4 -2 -5 -8v-2zM127 578q7 2 11 13q-7 -2 -11 -13zM122 567q4 1 4 7v1q-3 -4 -4 -8zM116 557q0 1 1 2l3 6q-4 -3 -4 -8zM203 53q43 0 81 26.5t63 65t45 86t29.5 85t13.5 65.5q10 73 -11 123.5t-60 50.5
q-96 0 -175 -115q-70 -103 -82 -221t48 -154q20 -12 48 -12zM110 547l4 7q-4 -1 -4 -7zM426 224q9 9 23 49t21 78q-1 12 -1 24q0 8 -2 9q0 1 -1 2q-3 -4 -4 -12q-7 -38 -16 -74t-15 -53l-6 -17q0 -4 1 -6zM462 223q4 2 4 3q13 29 18 41t9.5 22.5t4.5 11.5t1.5 8.5t3.5 14.5
q-1 24 -2 26q-4 -3 -7.5 -13.5t-32.5 -109.5v-1l1 -1v-2zM535 245q21 23 22 60q1 10 -1 18q-5 -6 -21 -68h1q-2 0 -2 -4q0 -1 0.5 -3t0.5 -3z" />
    <glyph glyph-name="seven" unicode="7" horiz-adv-x="625" 
d="M118 -13q-41 -6 -74.5 19t-33.5 90q0 90 100 197l67 72q23 26 55 60q-33 -3 -63 -15q-25 -9 -43.5 4t-6.5 37q6 11 29 24q41 20 75 23q40 4 78 4l78 85q71 89 92 123q25 39 37 68l3 7q0 4 2 8q0 2 0.5 4t0.5 3q0 6 -6 6q-1 0 -3 -0.5t-3 -0.5q-22 -4 -75 -7h-1
q-2 0 -64 -3q-217 -8 -221 -121q-1 -13 1 -27t4.5 -24.5t2.5 -12.5q-1 -5 -10 -11.5t-19 -5.5q-27 1 -47.5 50t-18.5 93q3 67 67 106q23 14 52.5 22.5t58.5 11.5t52 4t45.5 0.5t25.5 -0.5q47 -4 65 -5q32 -1 54.5 -0.5t34.5 1.5l12 1q22 0 54 -30.5t32 -77.5q0 -70 -67 -169
q-9 -16 -19 -28q-27 -40 -60 -78q9 1 27 5q9 1 34 13q2 1 6.5 4t8 5t6.5 3q19 11 48 -15q34 -30 21 -60q-10 -23 -49 -35q-37 -13 -72 -13q-49 -3 -107 9l-22 -22t-37 -37.5t-43.5 -47t-48 -56t-43 -59.5t-36 -62.5t-21 -59t-3.5 -55.5q0 -3 4 -5q4 -5 2 -10t-7 -7zM201 788
q2 -2 4 0h-4zM192 779l7 7q-6 -2 -10 -4q-1 0 -1 -2zM517 743l2 2l-1 2zM511 731q1 1 2 4t2 5q-6 -2 -4 -9zM505 719q5 3 5 10q-7 -1 -5 -10zM499 708q5 2 5 10q-7 -1 -5 -10zM346 514h7q36 40 54 61q54 65 81 109q11 18 10 24q-4 0 -6 -2t-4 -6t-3 -5q-50 -74 -118 -153
l-15 -17q-4 -4 -5 -6t-1 -5zM487 638q7 3 5 10q-5 -4 -5 -10zM384 505q1 1 11 8q48 56 87 112q2 3 4 11q-9 -6 -10 -7q-15 -17 -46 -55.5t-48 -58.5l-4 -6q0 -2 1 -3q3 -3 5 -1zM493 567h2v2zM482 550q9 6 10 16q-11 -5 -10 -16zM475 545q4 0 6 5q-4 0 -6 -5zM464 529
q12 5 11 15q-12 -5 -11 -15zM458 523q5 0 5 5q-3 1 -4 -0.5t-1 -4.5zM441 501q14 6 16 21q-15 -7 -16 -21zM435 496q2 -1 3.5 0.5t1.5 4.5q-5 0 -5 -5zM432 493l1 2h-1v-2zM191 305q14 9 40 39v4q6 0 6 6q4 0 5 1l51 51q1 1 1 2v3q-1 0 -3 1h-2q-33 -30 -52 -56v-2
q-6 0 -6 -6q-27 -18 -40 -41v-2zM214 370q1 0 2.5 0.5t2.5 1.5l4 4q9 10 29 30v4q-4 0 -5 -1t-4 -3.5t-5 -5t-4 -4.5q-12 -12 -18 -19q-1 -1 -1 -4q-1 -2 -1 -3zM325 376q9 8 25 24q2 2 -1 4h-2q-1 -1 -8 -7t-10 -10.5t-4 -10.5zM208 365q5 0 5 5q-5 0 -5 -5zM174 327
q20 17 21 26q-8 -6 -12 -10l-6 -7zM139 289q11 9 10 15q-10 -5 -10 -15zM185 300q1 0 2.5 2t2.5 2q-3 0 -4 -1q0 -1 -0.5 -1t-0.5 -1v-1zM179 294q3 0 4 1t1 3v1q-5 0 -5 -5zM173 289q5 0 5 4q-3 -3 -5 -4zM144 256q16 8 29 30q0 1 -1 2q-24 -16 -28 -32zM104 251
q13 8 16 20q-14 -6 -16 -20zM138 250q6 0 6 5q-6 1 -6 -5zM98 246l2 2q2 1 3 2q-5 0 -5 -4zM80 223q14 6 17 21q-14 -6 -17 -21zM52 186q18 10 27 35q-19 -15 -27 -35zM40 169q12 3 10 15q-11 -5 -10 -15z" />
    <glyph glyph-name="eight" unicode="8" horiz-adv-x="586" 
d="M10 238q-4 47 21.5 95.5t66 84.5t81.5 65.5t70 44.5l29 15q0 2 -4 18t-9 37t-6 32q-7 74 42 155.5t123 87.5q50 4 98.5 -32.5t52.5 -76.5q6 -59 -42.5 -126.5t-111.5 -101.5q-10 -6 -9 -10q0 -3 61 -109q2 -3 9.5 -16t10 -17.5t8.5 -16.5t9 -18.5t7.5 -18t7 -20t4.5 -19
t3 -21.5q10 -106 -37 -177t-122.5 -88t-154.5 -3t-139 78.5t-69 157.5zM391 586q23 2 53 82t26 128q-1 15 -5.5 23.5t-17.5 7.5q-39 -3 -60.5 -65t-16.5 -113l3 -20q12 -40 14 -42q1 -1 4 -1zM329 797q4 3 7.5 7t7.5 10l6 9q-16 -8 -21 -26zM356 800q6 3 12 16
q-14 -2 -12 -16zM351 795q4 0 4 5q-4 -1 -4 -5zM300 742q8 8 25 43q1 1 1.5 3l1 4t0.5 3q-1 0 -2 -1q-5 -2 -25 -44q0 -1 -1 -2q-1 0 -1 -2zM343 779q8 6 8 13q0 1 -1 2q-7 -6 -7 -14v-1zM341 776l1 1zM297 731q3 5 3 8v2q-4 -1 -4 -6v-1q1 -2 1 -3zM482 715l1 2q0 1 -1 1
v-3zM478 704l3 8q-3 -2 -3 -8zM474 692q4 2 4 8v2q-6 -3 -4 -6v-4zM471 682q4 3 3 7v2q-6 -1 -4 -5q0 -3 1 -4zM451 639q16 17 19 42q-4 -1 -5.5 -4t-3 -7.5t-2.5 -5.5q-8 -19 -8 -22v-3zM487 660q2 1 2 6v1q-2 -4 -2 -7zM473 637q10 4 12 21q-12 -7 -12 -21zM513 633
q7 7 7 13q0 1 -1 2q-7 -9 -6 -13v-2zM446 633h1q4 0 4 5h-1q-4 0 -4 -5zM452 604q17 20 18 22t3 10q-11 -6 -21 -29v-3zM439 617q8 6 7 12v3q-9 -5 -7 -13v-2zM508 628l4 4q-4 -1 -4 -4zM141 176q9 -89 88 -116t151 14.5t64 119.5q-2 18 -4 25q-13 56 -43 117t-54 96t-30 34
q-2 0 -21 -15.5t-46 -44t-52 -63t-41 -80t-12 -87.5zM171 420q11 1 14 11q-9 -1 -14 -11zM228 414q8 1 13 10q-8 -1 -13 -10zM105 335q3 2 32.5 38.5t30.5 37.5t1.5 4t0.5 4q-21 -13 -37.5 -32.5t-23 -33t-5.5 -16.5q0 -1 1 -2zM53 312q5 1 10 10q18 32 36 56t23 34
q-20 -10 -45 -48.5t-24 -46.5v-5zM224 408q3 2 3 4q-2 -2 -3 -4zM200 384q7 1 13 11q-10 -1 -13 -11zM195 378q5 2 4 4v2q-4 -2 -4 -5v-1zM173 350q16 10 22 27q-18 -10 -22 -27zM169 344q4 0 4 5q-5 0 -5 -4zM164 339q4 0 4 4q-4 0 -4 -4zM162 335l1 2q-1 0 -1 -1v-1z
M50 301q4 4 3 8v2q-5 -3 -3 -6v-4zM451 126q1 0 1 1zM448 115q2 2 2 6v2q-2 -4 -2 -8zM461 102q3 3 2 6v2q-1 -1 -1.5 -4t-0.5 -4z" />
    <glyph glyph-name="nine" unicode="9" horiz-adv-x="595" 
d="M11 57q-3 3 0 10q4 4 7 3q93 -69 241 71q23 23 42 48q45 60 56 83q1 3 1 9q-4 2 -7 1q-64 -14 -126 17t-100 92t-35 130q1 39 14 78q17 52 45 95q36 54 59 78q60 60 119 83q34 13 60 16q49 4 91 -28l7 -7t8 -7q114 -97 88 -294q-23 -168 -132 -326q-102 -148 -219 -195
q-127 -52 -219 43zM336 349q66 34 107.5 157t38.5 244q1 17 -7 39q-9 27 -38 20l-9 -3q-63 -25 -108 -85q-30 -39 -62 -101q-69 -135 -41 -223q19 -58 70 -60q24 -1 49 12zM136 607q4 4 5 6q43 87 112 169q-12 -4 -29 -23q-41 -44 -76 -112q-12 -26 -12 -40zM291 781h1v1z
M200 662q5 3 8 8q29 45 72 95q6 10 9 14q-6 0 -16 -10q-38 -33 -72 -99q-1 -2 -1 -8zM275 692q16 10 24 32q10 3 18 21q-17 -5 -18 -21q-19 -14 -24 -32zM266 676q9 7 9 15q-9 -4 -9 -15zM264 674l1 1q-1 0 -1 -1zM190 646q9 4 9 14q-9 -3 -9 -14zM133 599l2 2v4l-2 -2v-4z
M397 297q7 2 9 14q-11 -3 -9 -14zM293 147l2 1q3 4 14 15t16 17q44 51 61 86q11 25 11 30q-5 -3 -13 -18q-26 -44 -67 -97l-25 -30q1 -2 1 -4zM405 251h1l1 1q-1 -1 -2 -1zM319 142q5 0 12 7q7 8 21.5 23.5t21.5 23.5q4 5 27 41q1 1 3 13l-3 -3q-5 -6 -76 -94q-1 -2 -6 -11z
M419 190q18 8 18 26q-17 -17 -18 -26zM396 163q15 8 22 26q-12 -5 -22 -26zM391 157q3 1 3 4q-2 -2 -3 -4zM314 137q4 0 4 4z" />
    <glyph glyph-name="colon" unicode=":" horiz-adv-x="296" 
d="M229 431q-20 -40 -51.5 -25t-38.5 65q-5 40 13 81q16 36 23 49q6 12 22 16.5t33.5 1t33 -13.5t20.5 -26.5t-3 -38.5q-9 -20 -29 -60q-4 -8 -11.5 -24.5t-11.5 -24.5zM165 520q6 4 7 6l30 62v3q0 2 -1 3h-2q-6 -6 -8 -10q-11 -30 -26 -64zM164 510v1q1 1 1 2l-1 4
q0 -1 -1 -2t-1 -2t2 -3zM140 181q-20 -41 -51.5 -25t-37.5 66q-4 39 13 79q12 28 22 49q6 12 22 16.5t33.5 1t33 -13t20.5 -26t-3 -38.5q-9 -20 -29 -60q-7 -17 -23 -49zM77 270q1 1 3.5 2.5t3.5 3.5q6 11 15.5 33t13.5 29q1 1 1 3l-2 2q0 1 -2 1q-1 -2 -3.5 -5t-3.5 -5
q-5 -11 -13 -32t-13 -32zM76 260v7q-2 -4 -2 -5q-2 -2 2 -2z" />
    <glyph glyph-name="semicolon" unicode=";" horiz-adv-x="345" 
d="M279 431q-20 -40 -51.5 -25t-38.5 65q-5 40 13 81q17 40 22 49q6 12 22 16.5t33.5 1t33 -13.5t20.5 -26.5t-3 -38.5q-4 -10 -14 -30t-14 -30q-4 -8 -11.5 -24.5t-11.5 -24.5zM215 520q6 4 7 6l30 62v3v1l-1 2h-2q-6 -6 -8 -10q-5 -10 -13 -31.5t-13 -32.5zM214 510v3v4
q-2 -2 -2 -4q0 -1 2 -3zM123 168q-27 -15 -58 4q-21 16 -10 28q48 38 78 105q4 10 8.5 21t7 16.5t6.5 10.5q7 9 35 2.5t38.5 -31t-26.5 -81.5q-34 -48 -79 -75zM161 319q6 3 4 14q-6 -3 -4 -14zM175 300q4 1 9 17q-1 1 -1 2h-1q-8 -12 -7 -19zM156 309q6 1 4 9q-4 -1 -4 -9z
M148 293q2 0 3.5 0.5t2.5 3t1 3.5v8l-4 -6zM171 290q6 1 4 9q-6 -1 -4 -9zM205 281q4 3 4 12q-4 -3 -4 -12zM166 280q6 1 4 9q-4 -1 -4 -9zM161 272l4 7q-2 -1 -4 -7z" />
    <glyph glyph-name="less" unicode="&#x3c;" horiz-adv-x="293" 
d="M222 178q-33 2 -47 21q-6 7 -18 22t-17 23q-28 34 -63 56q-19 12 -42 18q-21 4 -29 11.5t-19 28.5l-3 3t-2 3q-6 10 4 16q1 1 5 3q57 29 151.5 130.5t108.5 128.5q10 11 29 3.5t37.5 -25.5t15.5 -27q-1 -5 -9 -17q-31 -42 -43.5 -59t-41 -49.5t-59 -56.5t-68.5 -47
q-2 -1 -5.5 -3.5t-6.5 -4.5l-6 -4q-8 -4 0 -8q2 -2 16 -10q42 -27 80 -66q31 -33 39 -67l2 -14q0 -9 -9 -9zM273 581q6 -1 6 5q7 2 9 11q1 1 -1 3h-2q-7 -7 -6 -14q-4 0 -6 -5zM307 587l4 3q1 1 1 4q-4 0 -4 -1q-1 -2 -1 -6zM296 570q9 7 10 16q-11 -5 -10 -16zM258 559
q14 6 15 21q-13 -6 -15 -21zM290 566l5 3q-3 0 -5 -3zM285 559q4 0 4 4zM252 554q5 -1 5 4q-5 1 -5 -4zM280 548q4 3 4 10q-6 -3 -4 -10zM236 532q14 9 15 21q-14 -9 -15 -21zM274 544q2 1 4 3q-2 0 -4 -3zM269 537q4 0 4 4zM258 521q10 8 9 15q-9 -5 -9 -15zM230 526l5 5
q-3 0 -5 -5zM194 483l35 41q-28 -24 -35 -41zM253 516l4 4q-4 0 -4 -4z" />
    <glyph glyph-name="equal" unicode="=" horiz-adv-x="413" 
d="M83 412q-4 -12 -17 6q-21 28 -9 56q21 45 135 27q47 -8 91 -12q45 -6 91 14q22 10 34 -19q14 -33 -6 -59q-5 -6 -11 -10q-21 -12 -70 -7.5t-98.5 16t-91 11t-48.5 -22.5zM101 488h1l-1 1h-2q1 -1 2 -1zM87 483q1 1 2 1l-1 1h-2zM349 474q14 0 20 8q-5 -1 -20 -5l-1 -1z
M77 479v1h-1zM103 471q2 0 3 1q-1 0 -2 1q-1 -1 -2 -1zM90 466h1l1 1v1q-1 0 -2 1v-3zM374 461l1 1zM360 456q8 -2 12 3q-10 2 -12 -3zM349 452q7 -2 10 4h-11l-2 -1zM371 424h2l-1 2h-2q0 -2 1 -2zM29 272q-4 -12 -16 6q-22 28 -9 56q21 45 135 27q43 -7 91 -12
q46 -6 90 14q23 10 35 -20q14 -33 -6 -59q-5 -6 -11 -10q-22 -12 -70.5 -7t-98 16.5t-91.5 11t-49 -22.5zM47 347q1 0 1 0.5t1 0.5l-1 1h-2q0 -1 0.5 -1t0.5 -1zM34 343q1 0 1 1t-1 1h-1q0 -2 1 -2zM296 334q13 -2 19 8q-3 -1 -9.5 -2.5t-9.5 -2.5l-1 -1zM23 339l1 1h-2z
M50 330l2 2h-3zM37 326h2q0 2 -1 2h-1v-2zM307 316q7 -3 12 3q-10 2 -12 -3zM295 312q7 -2 11 4h-12l-1 -1q0 -3 2 -3zM318 283l1 1q0 1 -1 2h-1q0 -2 1 -3z" />
    <glyph glyph-name="greater" unicode="&#x3e;" horiz-adv-x="295" 
d="M21 158q-9 -11 -28 -3t-37.5 26t-15.5 27q2 4 9 17q70 94 107 129q47 46 107 81l18 12q8 4 0 8q-3 2 -8 5.5t-8 5.5q-45 28 -79 65q-31 32 -39 68l-2 14q0 9 9 9q34 -4 47 -21q6 -9 35 -45q28 -36 62 -57q23 -14 42 -18q20 -4 28.5 -11.5t18.5 -29.5l6 -6q5 -10 -4 -16
l-5 -3q-57 -29 -153 -129t-110 -128zM45 276q28 24 35 41zM17 281q3 0 4 3zM6 264q9 7 9 15q-9 -7 -9 -15zM38 269q5 0 5 5zM22 248q15 8 15 21q-14 -9 -15 -21zM0 259q1 1 2.5 2t2.5 2q-4 0 -5 -4zM-5 253q4 0 4 4zM-10 242q4 4 4 10q-6 -3 -4 -10zM16 242q4 0 6 5
q-6 0 -6 -5zM-16 237l4 4q-4 0 -4 -4zM-5 215q2 -1 3 0.5t2 4.5q13 7 16 21q-15 -6 -16 -21q-7 0 -5 -5zM-22 231q3 0 5 4q-2 -1 -5 -4zM-33 215q11 5 10 15q-9 -5 -10 -15zM-39 206q1 0 2 1q2 0 2 1q1 1 1 3t1 3q-4 -2 -5 -3t-1 -5zM-14 201h2q7 5 6 13q-7 -1 -9 -11
q-1 0 -0.5 -0.5z" />
    <glyph glyph-name="question" unicode="?" horiz-adv-x="397" 
d="M66 106q-21 -10 -42.5 10.5t-25 57.5t25.5 87q19 30 48 59.5t86 78t73 62.5q76 69 120.5 137.5t47.5 150.5q0 17 -1 25q-4 39 -24.5 62t-55.5 23q-112 0 -169 -120q-39 -81 -33 -157q3 -41 18 -41q6 0 9 1q25 4 50 36q8 12 12 19q23 40 28 84v6q0 14 -3 25.5t-6 15.5
l-3 5q0 12 33 12q12 0 17 -1q12 -3 20 -7q4 -2 6 -4q11 -8 15 -17q1 -1 1 -3q15 -34 -4 -85q-3 -10 -9 -23v-1q-13 -24 -16 -28q-14 -21 -26 -33q-35 -38 -70 -44q-1 0 -4.5 -0.5t-5.5 -0.5h-2q-9 0 -23 2q-1 0 -4 0.5t-5 0.5q-14 3 -22 7q-41 17 -62 56t-20 76
q3 79 45.5 141.5t102.5 93t123 30.5q78 0 129 -51t47 -150q-2 -67 -33.5 -130t-80 -115t-99 -97.5t-101.5 -97t-76 -94.5zM85 735q0 1 0.5 2.5t0.5 2.5l1 1q1 1 1 2q4 1 4 7l1 2l1 1q4 3 4 8l1 2q1 0 1 1h1q0 1 1 1l-1 -1h-1q0 -1 -2 -1v-2q0 -1 -2 -4t-2 -4h-1q0 -1 -1 -3
q-3 -6 -4 -7l-1 -1l-1 -1v-1l-2 -3q1 -1 1 -2zM383 616q6 2 6 10h1l-1 1q4 2 6 12v3l1 1v1l3 3q0 1 -1 1l-1 2q-1 -3 -1 -6l-1 -1v-1q-6 -4 -6 -10v-6q-6 -1 -6 -6v-4zM244 636l1 2h-1v-2zM255 613l1 2l-1 1q-1 0 -1 -2zM360 578q14 10 17 26h1v1q5 1 5 8v2q-6 -1 -6 -6
q0 -3 1 -4h-1v-1q-13 -6 -17 -26zM249 601l1 2l-2 -1zM370 551q11 3 11 13v2l1 1q12 6 16 26h1v1l3 3l1 1v2q-3 -1 -4 -3v-3q0 -1 -1 -1q-14 -9 -16 -26h-1v-1q-11 -3 -11 -13v-2zM342 554l1 2l6 5v1q9 4 11 15q-11 -3 -11 -14v-1q0 -1 -1 -1l-6 -4v-3zM340 516h1l1 1
q1 2 5 6q1 1 3.5 2.5t3.5 2.5v1q10 6 10 14v2h2q2 0 4 5h-1q-3 0 -5 -5q-10 -7 -10 -16h-1l-6 -6q-2 -1 -6 -5l-1 -1v-1zM39 246q2 3 4 9h2v1l1 1v1q0 -1 -1 -2h-1l-1 -1q-4 -3 -4 -8v-1zM55 234h1q2 0 4 5l1 -1v1q4 4 4 9v2h1q2 1 6 5q0 1 1 2q-1 -1 -1 -2q-2 -1 -4 -2.5
t-3 -1.5v-1q-3 -2 -5 -7l1 -4h-2q-4 0 -4 -5zM12 196q3 4 3 8v1q0 1 1 1v1q5 1 5 6v4l1 1q4 1 4 6v4q1 0 1 1v1q6 1 11 13l1 1q-1 0 -1 -1q-7 -1 -11 -13q-1 0 -1 -1v-1q-1 -2 -2.5 -5.5t-1.5 -4.5h-1v-1q-5 -3 -5 -10h-1v-2q-4 -4 -4 -5zM49 223q5 1 5 7v4q-5 -2 -5 -9v-2z
M43 213q5 1 5 7v3q-5 -3 -5 -7v-3zM34 196q0 1 2 3q0 1 2 1v1q3 3 5 10v1q-5 -1 -5 -7v-4h-1q0 -1 -0.5 -1t-0.5 -1l-2 -1h-1zM-2 -52q-16 -32 -41 -18q-27 17 -27 61q0 24 10 48q3 6 8.5 18.5t8.5 18.5q10 13 33 14t40.5 -17t6.5 -43q-14 -30 -22 -45q-8 -18 -17 -37z
M-50 15q3 2 5 5q4 7 11.5 22.5t11.5 23.5v3l-1 1l-1 1q-1 -1 -3 -3.5t-3 -4.5q-3 -8 -9.5 -24t-10.5 -24zM-51 7q0 1 1 3v1q-1 1 -1 2l-1 -4q1 -1 1 -2z" />
    <glyph glyph-name="at" unicode="@" horiz-adv-x="895" 
d="M365 -10q-66 0 -120 20t-89.5 53t-60 78t-35 94t-10.5 102q0 111 45.5 212.5t117 171t160.5 111t176 41.5q57 0 107.5 -16t94 -49t69 -92.5t25.5 -139.5q0 -51 -15.5 -112.5t-43 -118.5t-72.5 -95t-96 -38q-35 0 -63 9t-43.5 22.5t-25.5 26t-15 23.5l-5 11q-2 2 -5 2h-1
q-44 -60 -100 -81t-93.5 -1.5t-37.5 64.5v9q0 40 12.5 88.5t38 99.5t73 85t107.5 34q81 0 101 -58q13 -37 13 -50v-1q0 -7 20.5 -17t20.5 -19q0 -2 -7 -23.5t-13.5 -48.5t-10.5 -54.5t2.5 -46t25.5 -18.5q31 0 69.5 43t67 117.5t28.5 150.5q0 120 -54 178t-142 58
q-186 0 -306 -152q-95 -120 -110 -282q-14 -151 52 -239q54 -72 146 -72q89 0 176 104q8 8 27 8q17 0 30.5 -6t13.5 -17q0 -10 -19 -36.5t-49.5 -56.5t-78.5 -53t-98 -23zM346 280q2 0 2 1q17 15 23 23q30 37 58 68.5t43 47t27 28.5t16 20t4 14q0 8 -2 12q-5 20 -16 39.5
t-24 19.5q-34 0 -62.5 -39.5t-43 -92t-22 -90t-7.5 -46.5q0 -4 2 -4q0 -1 2 -1zM106 454l2 2q-1 1 -1 2q0 -3 -1 -4zM101 420q2 4 2 7l-1 10q4 1 4 6q0 2 -0.5 4t-0.5 3q-3 -3 -3 -8v-6q-3 -3 -3 -8q0 -2 2 -8zM82 430l1 2l1 2l-2 2v-6zM80 417q0 4 2 12q-3 -2 -3 -7
q0 -4 1 -5zM98 404q2 2 2 6v8q-4 -3 -4 -7q0 -3 2 -7zM77 400q0 4 2 12q-4 -1 -4 -6q0 -2 2 -6zM97 387v14q-2 -2 -2 -3v-3q0 -8 2 -8zM72 356q3 4 3 9q0 3 -1 8t-1 8q4 3 4 7q0 2 -0.5 4.5t-0.5 3.5q-4 -1 -4 -6q0 -2 0.5 -5t0.5 -4q-3 -3 -3 -10q0 -2 1 -7t1 -8zM93 370h2
l-1 2zM520 355v1l1 2l-2 2v-2q0 -2 1 -3zM287 353h1q0 2 -1 2v-2zM72 332q2 2 2 4l-3 17q-3 -3 -3 -7q0 -3 2 -9q0 -1 2 -5zM517 325q5 0 5 11q0 2 -3 17q-5 -1 -5 -7v-10q0 -6 3 -10v-1zM562 338v1l1 1q0 1 -2 3v-2q0 -2 1 -3zM283 333q3 0 3 2t-2 4q-1 -2 -1 -3v-3z
M491 310q0 1 0.5 2.5t0.5 2.5v16l-4 3q-3 -4 -3 -6q0 -1 0.5 -3t0.5 -3q0 -2 2 -8l1 -2zM278 272q3 3 3 5q2 5 2 16q0 5 -2 17q4 4 4 9l-3 12q-3 -5 -3 -9t2 -12l-1 -1q-2 -1 -3 -2q-2 -18 -2 -28q0 -1 3 -7zM254 311q3 1 3 6q0 3 -2 7l-1 2q-1 0 -1 -1zM71 310q1 0 1 2
l-1 2l-1 2v-1q-1 -1 -1 -2t1 -1zM253 266l2 4q1 6 1 17t-3 22q-1 0 -3 -2q0 -5 -0.5 -17t-0.5 -18q0 -1 2 -3t2 -3zM321 277v4q0 1 -1 2v-4q0 -1 1 -2z" />
    <glyph glyph-name="A" unicode="A" horiz-adv-x="1059" 
d="M892 -198q-53 0 -94 45.5t-59.5 118.5t-2 178t72.5 211q-18 0 -81.5 1.5t-73.5 1.5q-11 0 -16 -8q-150 -204 -239 -278l-1 -1q-3 -2 -9 -8l-4 -4q-4 -4 -7 -5l-6 -6q-37 -30 -82 -47q-27 -10 -55 -14q-16 -2 -25 -2q-80 0 -143 68q-65 70 -67 162q0 40 7 71
q21 96 93.5 148.5t145.5 52.5q34 0 55 -12.5t21 -35.5q0 -3 -1 -5t-3 -3.5t-4 -2.5t-5.5 -2.5t-5.5 -2.5q-28 -12 -55 -35l-11 -12q-41 -44 -64.5 -105.5t-22.5 -118.5q3 -159 137 -36q84 77 174 211q15 22 15 24q0 4 -4 4q-6 0 -12 -2q-12 -3 -26 -10t-25 -15t-20 -15.5
l-15 -12.5l-5 -5q-16 0 -36 29.5t-3 46.5q27 28 62.5 38t103.5 12l30 -1q5 4 13 20q13 20 38 59.5t38 59.5q108 161 207 248q-75 6 -152.5 3.5t-149.5 -9t-139 -28.5t-120.5 -55.5t-94 -90t-60.5 -131.5q-8 -32 -40 -24q-33 9 -49 48q-30 71 42 153q25 29 63 57
q57 42 127 71.5t130 43t137 19.5t125 5.5t118 -2.5t94 -2h11q31 1 55 11q1 1 5 3q75 37 127.5 28t80.5 -37.5t28 -61.5q0 -65 -67 -195q-4 -7 -35 -66.5t-51 -95.5q-33 -56 -64 -119q-30 -60 -53 -131.5t-35.5 -148.5t7 -139t72.5 -86q2 -1 2 -4q0 -6 -14.5 -13.5
t-28.5 -7.5h-1zM838 411q17 33 94 160.5t112 202.5q23 47 25 67q-5 13 -18 13q-5 0 -17 -2q-46 -14 -121 -104q-40 -49 -136 -189q-55 -83 -90 -139l-2 -4q0 -3 33.5 -4t74 -1h45.5zM1080 799q0 2 2 2q-1 1 -1 3l-1 -3v-2zM314 792v1h-2zM250 785l4 2h-2zM1072 776q2 2 3 6
l-2 2v-1q-1 -4 -1 -7zM221 746q0 1 1 1q1 -1 16.5 7t31 17t16.5 11q-2 0 -18 -8t-31.5 -16.5t-14.5 -10.5q-1 0 -1 -1zM126 708q94 63 106 68l1 1l2 1h-2h-2q-19 -8 -59.5 -34.5t-45.5 -35.5zM788 227q2 2 4 8l3 6q33 91 141 279.5t117 207.5q15 32 17 43q-3 -1 -9 -13
q-5 -8 -20.5 -39l-19.5 -39l-37 -64l-10 -17q-54 -91 -125 -217q-2 -4 -5 -10.5t-5 -10.5t-4 -7q-16 -31 -27.5 -60.5t-16 -44.5t-4.5 -18zM1081 731q2 2 1 4q-1 -1 -1 -4zM1074 719q4 2 4 9q-2 -1 -4 -9zM599 420q3 0 5 2q20 28 29 42q120 183 174 252q1 2 2.5 5.5t2.5 5.5
q-13 -12 -23.5 -23.5t-24.5 -29t-22.5 -29t-27.5 -40t-29.5 -44t-39 -59t-44.5 -68.5q0 -1 -2 -4t-2 -5q0 -3 2 -5zM769 719l2 2v2q-2 -2 -2 -4zM761 713l6 4q-5 0 -6 -4zM845 291q1 1 5 9.5t5 9.5l25 46v1l5 9q1 1 1 2q35 64 76.5 138t67 120t35.5 66v1q4 8 8 20v3
q-4 -4 -6 -7q-118 -207 -197 -357q-20 -38 -25 -61zM562 424h2q5 3 8 8l39 57l11 17q75 120 133 194q1 2 2.5 5.5t2.5 5.5q-1 -1 -3 -2t-3.5 -2t-2.5 -2q-21 -28 -39 -51q-22 -27 -144 -214l-1 -1l-1 -1v-1l-1 -1l-1 -1v-1l-1 -1l-3 -7q0 -2 2 -2zM844 690q6 4 6 10
q-6 -3 -6 -10zM822 664q11 5 21 25h-4q-15 -15 -17 -25zM814 652q7 2 7 11q-7 -3 -7 -11zM912 318q4 6 12 20.5t14 27.5l6 12q22 42 23 43q91 169 121 231q-80 -138 -125 -227q-5 -9 -26.5 -52.5t-24.5 -54.5zM658 418l4 4q2 2 6 7q1 2 37 56.5t71.5 109t36.5 56.5
q-5 -1 -8.5 -4.5t-7.5 -10t-5 -7.5q-135 -203 -135 -205q0 -4 1 -6zM145 353q15 13 47 54q1 1 1 4q-23 -13 -43 -44q-3 -4 -5 -14zM150 407q2 1 5 4q-3 0 -5 -4zM143 402q4 2 5 4q-3 0 -5 -4zM82 310l3 3q27 45 53 78q2 1 4 9q-19 -10 -35.5 -37.5t-24.5 -52.5zM220 374
q12 5 12 16q-11 -7 -12 -16zM205 358q10 2 14 15q-8 -2 -14 -15zM346 360l4 3q0 2 1 3q-5 -1 -5 -4v-2zM413 172q5 1 18 17q17 22 47.5 61.5t53.5 69.5t24 32q4 5 3 10v2q-7 -2 -8 -3q-2 -1 -67.5 -89.5t-66.5 -89.5q-2 -4 -4 -10zM388 184q11 10 25 28q1 1 36 48l39 53
q32 44 32 46q-1 2 -3 2q-8 -6 -27 -32q-10 -14 -19 -27l-79 -109q-2 -3 -4 -9zM562 287h2q1 1 26.5 34.5t25.5 34.5q0 2 -2 4l-2 -1l-50 -70v-2zM199 347q5 5 5 9zM141 345l1 2l2 4q-4 0 -4 -3q0 -2 1 -3zM78 302q1 1 2 5q-3 -2 -3 -3zM533 249q18 16 28 36q-18 -14 -28 -36
zM842 282v3q-2 -1 0 -3zM503 212q18 13 28 35q-13 -8 -28 -35zM496 201q2 5 5 8q-5 -3 -5 -8zM380 173l6 9q-4 -2 -6 -9zM405 161q7 5 7 11q-7 -2 -7 -11zM291 78q17 14 25 22l-3 3q-16 -20 -22 -25z" />
    <glyph glyph-name="B" unicode="B" horiz-adv-x="1174" 
d="M767 -16q-39 0 -71 15.5t-51 41t-27.5 40.5t-14.5 31q-87 -108 -199 -125q-87 -14 -160 58t-75 170q-3 145 105 223q73 53 150 49q59 -3 67 -39q1 -5 1 -9q0 -3 -2.5 -6t-4.5 -4t-7 -3t-6 -3q-24 -11 -55 -35q-46 -45 -72.5 -110.5t-24.5 -125.5q0 -40 13.5 -74.5
t41.5 -36.5q27 -4 72 56.5t114 183.5l10 18h1q246 445 271 507q-80 7 -161.5 5t-157 -8t-144.5 -27.5t-124.5 -55.5t-97 -91t-61.5 -133q-9 -32 -40 -24q-33 9 -49 48q-30 71 41 153q26 29 64 57q57 42 127 71.5t130 43t137 19.5t125 5.5t118 -2.5t94 -2q39 0 66 11
q24 11 25 11q14 2 20 2q25 0 43 -8.5t24 -18t1 -15.5q-8 -8 -11 -9q-12 -6 -20.5 -13t-14 -13.5t-13 -20.5t-12 -24.5t-16 -36t-20.5 -45.5q-16 -36 -22 -48l-4 -9l3 3q7 8 21.5 24.5t21.5 24.5q145 151 220 151q65 0 94 -56q14 -25 14 -58q0 -55 -39.5 -118.5t-106.5 -112
t-138 -60.5q-10 -2 -14 -4q-4 0 -4 -5l2 -4q2 -2 9.5 -8.5t10.5 -10.5q62 -64 62 -145q0 -19 -5 -46q-17 -90 -101 -154.5t-173 -64.5zM305 792v1h-2zM241 785q1 1 2 1q2 0 2 1q-2 0 -4 -2zM859 774l1 3l3 5l-3 3l-1 -2v-9zM212 746q0 1 1 1q1 -1 16 7t31 17t17 11
q-2 0 -18.5 -8t-32 -16.5t-14.5 -10.5v-1zM117 708q94 63 106 68l1 1l2 1h-3q-3 2 -51.5 -29t-54.5 -41zM885 470q91 0 160.5 78t107.5 187q10 27 2 41q-29 1 -85 -41.5t-108 -96.5t-91 -99t-39 -50q0 -7 29 -16q6 -1 14 -2t10 -1zM464 78l8 6q33 27 87 111h-1
q31 48 68.5 114.5t69.5 127.5t59 114.5t43 87.5l17 34v1l9 19q19 36 30 64q2 3 4 13h-1q-62 -113 -156.5 -289.5t-110.5 -206.5h-1q-87 -161 -125 -196zM868 731q3 2 1 5q-1 -1 -1 -2.5v-2.5zM862 719q5 1 5 9q-5 -2 -5 -9zM538 116q9 13 42 64q49 78 88 147t59 109
t56.5 114.5t59.5 120.5q1 1 11 21v2q8 18 7 23q-4 -6 -35 -67q-223 -432 -288 -534zM1168 698l2 4q3 3 3 4q0 2 -2 4l-3 -3v-9zM1136 634h2q25 30 29 61q-20 -26 -31 -61zM890 678l1 1v2q-1 -1 -1 -3zM1184 663l3 2v3q-3 -2 -3 -5zM883 661l1 1v2zM1141 594l6 3q22 32 32 49
q2 3 4 15l-4 -2q-4 -7 -18 -29.5t-20 -35.5zM635 193q40 64 77 133.5t137 266.5l17 35q0 1 1 1l3 7v1q1 1 3 5l3 7l4 7q-2 -4 -15 -27t-14 -24q-1 -5 -4 -7v-2q-4 -5 -7 -10v-1q-82 -134 -205 -392zM1218 629q0 1 2 4t2 5q-4 -2 -4 -9zM1130 622q8 3 6 11q-8 -3 -6 -11z
M1211 617l5 9q-5 -1 -5 -9zM1118 605q8 4 12 16q-10 -2 -12 -16zM1204 611q4 0 6 5q-3 0 -6 -5zM1200 600q4 3 3 9zM1106 588q10 6 11 16q-9 -4 -11 -16zM1129 576q11 6 11 17q-11 -6 -11 -17zM745 36q57 0 110 77t53 169q0 44 -16 85.5t-47 51.5q-3 1 -9 5t-8 5
q-20 12 -31 17q-105 -207 -158 -284q6 -41 38.5 -83.5t67.5 -42.5zM314 353q19 16 47 54q1 1 1 4q-24 -15 -43 -44q-2 -2 -3 -7.5t-2 -6.5zM320 407l4 4q-4 0 -4 -4zM312 402q4 2 6 4q-4 0 -6 -4zM251 310l3 3q31 49 54 78l3 9q-18 -10 -35 -37.5t-25 -52.5zM389 374
q12 4 13 16q-12 -8 -13 -16zM375 358q11 3 13 15q-9 -3 -13 -15zM368 347q5 5 5 9q-1 -3 -5 -9zM310 345l3 6q-4 0 -4 -3q1 -2 1 -3zM248 302l1 5l-2 -3q0 -2 1 -2zM899 144q7 0 18.5 24t16.5 43q3 18 3 25q0 1 -1 2.5t-1 2.5q0 -1 -1.5 -2.5t-1.5 -2.5q-10 -39 -33 -92z
M934 144l6 3q23 30 23 53q0 2 -2 6q-3 -4 -27 -62zM998 155q3 1 11 18v1l-1 2v3l-4 -3q-8 -15 -6 -21zM991 145q6 1 6 9q-3 -1 -6 -9zM897 137q1 2 1 6q-2 -4 -1 -6zM928 133q7 3 5 9q-1 -3 -5 -9zM989 137q0 1 0.5 2.5t0.5 2.5l-2 -3q1 -1 1 -2z" />
    <glyph glyph-name="C" unicode="C" horiz-adv-x="1213" 
d="M757 -27q-47 0 -93.5 15.5t-89.5 52.5t-67.5 91t-22.5 139.5t39 188.5q18 49 51 107q90 160 198 242q-72 5 -146 1.5t-142 -12t-130.5 -31.5t-112.5 -56.5t-87.5 -88.5t-56.5 -126q-9 -32 -40 -24q-33 9 -49 48q-30 71 41 153q26 29 64 57q74 56 168.5 89t179 41
t172.5 10t149 -4q41 -2 113.5 12.5t108.5 14.5q104 0 167.5 -45.5t63.5 -139.5q0 -86 -51 -164.5t-107 -78.5q-32 0 -66 25t-34 43q0 5 5 8t20.5 9.5t30 20.5t32.5 44q8 13 24 44q6 13 7 15q20 46 20 93q0 55 -21 57q-5 1 -15 1q-100 0 -198 -98q-69 -67 -138 -192
q-6 -12 -9 -17q-13 -26 -44 -98q-26 -60 -34 -98q-11 -51 -16.5 -89t-4.5 -80t13.5 -69t41.5 -44.5t75 -17.5q99 0 218.5 82.5t206.5 221.5q2 4 5 8.5t4.5 7t3.5 5.5t3.5 5t3 3.5t3 2.5t3 1.5t3.5 0.5q6 0 10.5 -7.5t4.5 -15.5q0 -5 -15 -30q-21 -35 -44.5 -69t-69.5 -85.5
t-94.5 -88t-116.5 -64t-138 -27.5zM305 792v1h-2zM241 785q1 1 2 1q2 0 2 1h-2zM212 746q0 1 1 1q1 -1 16 7t31 17t17 11q-2 0 -18.5 -8t-32 -16.5t-14.5 -10.5v-1zM117 708q94 63 106 68l1 1l2 1h-2h-2q-19 -8 -59.5 -34.5t-45.5 -35.5zM1127 676q4 4 4 11v3l-2 2l-1 -1
q-1 -5 -1 -15zM1078 581q4 2 5 3q29 37 43 84v7q-4 -2 -9 -10q-5 -11 -40 -79v-1zM1107 568q1 0 4.5 2t5.5 4q17 18 21 40q-1 0 -5 2q-15 -22 -26 -48zM680 603h1v2zM673 591l3 6q1 3 2 4q-5 -3 -5 -8v-2zM666 584h2q3 0 5 5h-2q-3 0 -5 -5zM621 579q1 2 2 5t2 4
q-4 -3 -4 -8v-1zM661 571q5 3 5 8v4q-6 -3 -6 -9q0 -2 1 -3zM1156 544q4 0 5 1q14 16 14 31v1l-3 -3q-3 -4 -7 -10.5t-6.5 -11.5t-2.5 -6v-2zM555 283q4 6 5 9q31 138 94 259l2 6t2 7t2 6q-5 -1 -12 -12q-62 -102 -88 -222q-6 -28 -6 -41q0 -8 1 -12zM609 560q4 1 4 6v3
q-2 -3 -4 -9zM602 547q5 3 5 9v2q-5 -2 -5 -9v-2zM596 535l5 10q-5 -3 -5 -8v-2zM578 498q13 11 17 34q-16 -12 -17 -34zM703 522h2q1 0 1 1t-1 2v1q-1 0 -1 -2t-1 -2zM697 510q5 1 5 6v4zM691 498q5 1 5 6v4zM513 233q3 15 3 16q0 2 3.5 27t5.5 37q12 62 48 164q2 5 4 19
q-4 0 -6 -2t-4 -7t-2 -6q-56 -126 -56 -231q0 -3 2 -9t2 -8zM625 326q3 0 5 2q9 28 24 68.5t26 67.5l10 26v6l-6 -6q-1 -3 -5 -11q-18 -38 -36 -85.5t-18 -62.5v-5zM624 305v3l1 2v13q-4 -8 -4 -13q0 -1 1 -2q2 -2 2 -3zM619 274q0 2 0.5 4.5t0.5 3.5t-1 3t-1 3q-2 -6 -2 -8
q0 -3 3 -6zM553 269l1 4v7q-3 -6 -3 -7q0 -2 2 -4z" />
    <glyph glyph-name="D" unicode="D" horiz-adv-x="1305" 
d="M379 -15q-81 0 -144.5 70t-65.5 160q0 40 7 71q21 96 93.5 148.5t145.5 52.5q75 0 77 -48q0 -3 -2.5 -6t-4.5 -4t-7 -3t-6 -3q-24 -11 -55 -35q-3 -4 -11 -12q-40 -44 -64 -106t-22 -118q0 -40 13.5 -74.5t41.5 -36.5q1 0 3 -1h1q13 0 32 17q48 44 161 242q34 60 51 91
q83 150 128 234q65 123 88 173l3 8q1 0 1 1q-76 4 -135.5 5t-133 -3.5t-130 -16t-116 -34.5t-102.5 -57t-77.5 -86t-51.5 -118q-9 -32 -40 -24q-33 9 -49 48q-30 71 41 153q26 29 64 57q57 42 127 71.5t130 43t137 19.5t125 5.5t118 -2.5t94 -2h11q29 1 55 11q30 13 45 13
q25 0 43 -8.5t24 -18.5t0 -16t-10 -8q-12 -6 -20.5 -13t-14 -13.5t-13 -20.5t-12 -24.5t-16 -36t-20.5 -45.5q-18 -40 -22 -48v-1q94 131 171 201q15 15 40 31q17 11 36 11q6 0 16 -2q27 -6 43 -11.5t39 -24.5t43 -51q19 -31 22 -78q1 -27 0 -53q-8 -150 -116 -334
t-247 -291q-44 -34 -88.5 -40.5t-78 7.5t-64 42t-49 54.5t-30.5 51.5q-1 -1 -1 -2q-16 -23 -33 -42q-64 -78 -137 -104q-31 -10 -56 -14q-16 -2 -25 -2zM866 799h1l2 2v1h-3v-3zM771 81q45 0 97 48q2 1 17 16t17 18q7 7 21 23q58 66 107 160.5t77 181.5t43 157.5t15 108.5
q-6 2 -8 2q-5 0 -17 -7q-40 -16 -85 -58q-197 -179 -294 -356q-54 -104 -89 -162q-13 -31 21.5 -81.5t77.5 -50.5zM305 792v1h-2zM241 785q1 1 2 1q2 0 2 1h-2zM859 774q1 1 1 2q1 1 1 2l1 1l1 3l-1 1q-1 1 -1 2l-2 -2v-9zM212 746q0 1 1 1q1 -1 16 7t31 17t17 11
q-2 0 -18.5 -8t-32 -16.5t-14.5 -10.5v-1zM117 708q94 63 106 68l1 1l2 1h-2h-2q-19 -8 -59.5 -34.5t-45.5 -35.5zM464 78l8 6q100 84 342 587l1 2v1l9 19h1q9 18 30 63v1q0 1 3 14v1q0 -1 -1 -2q-28 -50 -86 -158q-6 -11 -13 -23q-2 -5 -5 -10l-38 -70q-63 -120 -111 -207
l-14 -28h-1l-9 -16q-6 -12 -18 -34q-2 -3 -6 -11q-4 -6 -8 -13q-53 -93 -84 -122zM868 730l2 2l1 1q0 1 -1 3q-1 0 -1 -2q-1 -1 -1 -4zM862 719q5 1 5 10q-5 -4 -5 -10zM538 116q63 96 111 179t71.5 128.5t60 121t58.5 118.5l5 8q0 1 1 2v2q7 11 9 17v1h1v1q6 16 7 19v4
q-5 -5 -36 -67l-14 -26l-3 -6l-14 -27q-191 -373 -257 -475zM1183 682q0 1 1 1q0 2 -1 3v-4zM890 678l1 1v2q-1 -1 -1 -2v-1zM883 660q0 1 1 2l1 1q0 1 -0.5 1t-0.5 1l-1 -4v-1zM634 191q57 89 189 350l26 52l11 21q3 7 7 14v1q1 1 1 3l2 2q0 1 1 2v1q1 1 3 5l3 7q0 1 1 3
q1 1 1 2l2 3q-1 0 -6 -8.5t-12 -22t-11 -19.5q0 -1 -1 -2q-1 -5 -4 -7v-2h-1l-4 -7q0 -1 -2 -3v-1l-1 -1q-95 -160 -205 -393zM1173 639l1 2h-1v-2zM1167 612l1 4l2 4l-2 4q-1 -1 -1 -3v-9zM1161 593q4 2 6 8q0 1 -0.5 4t-0.5 5q-5 -2 -5 -9v-8zM1157 575q4 3 4 8v9
q-5 -5 -5 -10t1 -7zM1137 508q18 29 19 60v4q-16 -25 -19 -60v-4zM1009 251q11 11 12 13q70 101 108 208q8 23 8 27v7q-6 -4 -7 -7q-2 -4 -16 -40t-34 -76t-52 -95l-7 -10.5t-8 -13.5t-4 -13zM1222 456h2q-1 1 -1 3l-1 -1v-2zM1156 446q0 1 1 2l1 2l-1 1q-1 1 -1 2
q0 -1 -0.5 -1t-0.5 -1zM1021 214q5 2 8 5.5t8 10t6 8.5q57 77 99 172q5 11 13 35q-5 0 -10 -11q-52 -108 -120 -208q-2 -2 -4 -12zM1211 428q3 3 3 7v3zM1205 417q2 3 4 9q-2 -1 -4 -7v-2zM1122 269q1 0 3 1.5t3 2.5t4 5.5t7 11.5t11.5 19.5t18 31t25.5 44.5q1 2 10 28
q-5 -4 -11 -14t-68 -120q-1 -1 -3 -10zM314 353q19 16 47 54q1 1 1 4q-24 -15 -43 -44q-2 -2 -3 -7.5t-2 -6.5zM320 407l4 4q-4 0 -4 -4zM312 402q4 2 6 4h-1q-3 0 -5 -4zM251 310l3 3q31 49 54 78l3 9q-18 -10 -35 -37.5t-25 -52.5zM389 374q12 4 13 16q-12 -8 -13 -16z
M375 358q11 3 13 15q-9 -3 -13 -15zM368 347q5 5 5 9q-1 -3 -5 -9zM310 345l1 2l2 4q-4 0 -4 -3q1 -2 1 -3zM248 302l1 5l-2 -3q0 -2 1 -2zM1107 245q12 7 15 23q-14 -6 -15 -21v-2zM1003 245h1q4 0 4 5h-1q-4 0 -4 -5zM1101 239l5 5q-3 0 -5 -5zM988 221q13 13 14 22
q-13 -8 -14 -22zM1096 233q4 0 4 4q-1 -3 -4 -4zM1086 215q9 9 9 15v1q-8 -6 -9 -16zM1015 209l4 4q-4 0 -4 -4z" />
    <glyph glyph-name="E" unicode="E" horiz-adv-x="1131" 
d="M728 -29q-103 0 -177 65t-74 162q0 39 23 104q5 16 12 29q30 64 90 104q38 26 83 45q17 7 31 11q8 3 68 13q6 0 6 4q0 3 -4 7q-6 6 -18.5 16t-18.5 16q-2 1 -7.5 6.5t-7.5 6.5q-18 20 -24 31q-19 34 -19 67q0 6 1 9q0 9 1 13q4 16 7 24q18 58 65 105q-72 5 -144.5 1
t-140 -12.5t-129.5 -31.5t-111.5 -56.5t-87 -88t-55.5 -125.5q-9 -32 -40 -24q-33 9 -49 48q-30 71 41 153q26 29 64 57q36 27 75.5 48.5t83.5 36t81 25.5t87 16.5t80.5 9t83 3.5h73.5t72.5 -2t61.5 -2q21 0 59.5 12t85.5 12q95 0 158 -59t63 -134q0 -78 -70 -131
q-22 -15 -39 -21q-5 -2 -11 -4h-3l-1 -1q-1 0 -3 -1h-1q-2 -1 -6 -1h-11q-1 1 -3 1q-6 1 -20 7l-7 3l-20 12q-39 26 -39 43q0 7 5 10q6 4 9 5h1l2 1l1 1h1l2 1l6 3q5 2 7 3l6 3q36 22 61 68t25 85q0 51 -47 51q-16 0 -34 -3q-42 -11 -71 -34l-7 -6q-49 -42 -58 -104
q-5 -23 -5 -42t5 -44q7 -35 33.5 -65.5t46.5 -43.5t26 -14q8 -1 10 -10q1 -4 2 -11t2 -11.5t1 -6.5q0 -24 -26 -24q-2 0 -7 0.5t-8 0.5q-5 1 -15 1q-22 0 -53 -9q-113 -39 -175 -120q-1 -1 -2 -2.5t-2 -2.5q-48 -64 -48 -133q0 -55 32.5 -90.5t88.5 -35.5q45 0 95.5 28
t97 74.5t85.5 96t72 101.5l15 25q7 11 14 11h1q14 -2 14 -23q0 -7 -14 -30q-25 -42 -43.5 -70.5t-63 -84t-85.5 -90.5t-100 -63t-118 -28zM305 792v1h-2zM241 785q1 1 2 1q2 0 2 1h-2zM212 746q0 1 1 1q1 -1 16 7t31 17t17 11q-2 0 -18.5 -8t-32 -16.5t-14.5 -10.5v-1z
M117 708q94 63 106 68l1 1l2 1h-2h-2q-19 -8 -59.5 -34.5t-45.5 -35.5zM799 762q3 3 5 4h-1q-4 0 -4 -4zM1100 748q5 4 5 11q0 5 -2 5l-1 -1q0 -3 -1 -8t-1 -7zM772 701l6 6q2 6 7.5 16.5t9 19.5t3.5 18q-4 -1 -6.5 -3.5t-4 -5t-3 -6.5t-2.5 -6q-11 -22 -11 -32q0 -5 1 -7z
M726 661q4 6 25 72l3.5 10.5t3.5 11.5q-4 0 -4 -1q-30 -40 -30 -88l1 -2q1 -2 1 -3zM844 740q3 2 3 5q0 2 -1 4q0 -3 -2 -9zM1047 653l1 1q2 1 3 2h1q29 35 47 83v8q-1 -1 -2 -1t-2 -1q0 -1 -7 -13l-2 -3q-2 -3 -2 -4l-3 -4v-2q-1 0 -18 -30.5t-17 -31.5q0 -3 1 -4zM840 728
q3 3 3 7v4q-4 -3 -4 -7q0 -2 1 -4zM835 719l3 8q-3 -1 -3 -5v-3zM831 708l3 8q-3 -2 -3 -6v-2zM769 694q3 2 3 3q-1 1 -1 2l-2 -3v-2zM1074 640h1q1 1 5 2.5t5 2.5q14 17 20 31q5 9 6 21q-14 -14 -31 -46zM1123 616h4q16 16 17 31v2q-5 -5 -22 -31v-1zM554 330q3 2 3 5l-1 4
q-2 -6 -2 -9zM512 194l4 6q1 1 1 3q7 41 20.5 79.5t14.5 45.5q-8 -5 -9 -7q-14 -30 -20 -46q-14 -40 -14 -71q0 -4 3 -10zM556 216q2 2 3 4q1 1 20 50t19 50q0 3 -1 4q-3 0 -4 -1q-16 -18 -26 -43t-12 -38.5t-2 -19.5zM615 205q2 0 4 2q4 10 12.5 29.5t12.5 29.5v1
q0 1 -0.5 3t-0.5 3q-15 -14 -22 -35.5t-7 -30.5z" />
    <glyph glyph-name="F" unicode="F" horiz-adv-x="840" 
d="M210 -15q-82 0 -145 70t-65 160q0 40 7 71q21 96 93.5 148.5t145.5 52.5q34 0 55 -12.5t21 -35.5q0 -3 -1 -5t-3 -3.5t-4 -2.5t-5.5 -2.5t-5.5 -2.5q-28 -12 -55 -35l-11 -12q-41 -44 -64.5 -105.5t-22.5 -118.5q1 -40 14.5 -74.5t41.5 -36.5l4 -1q14 0 31 17
q51 45 161 242h1q21 39 51 91q16 30 25 45q-2 2 -3 2q-8 4 -11 6q-36 17 -49 52q0 1 -3 7t-4 10q-2 2 0.5 4t6.5 1q5 -2 17 -8q27 -11 62 -14q11 -1 19 5q42 75 67 124q63 117 92 178q-45 2 -87 -4t-80.5 -21t-64 -44.5t-30.5 -69.5q-3 -22 0.5 -43.5t2.5 -29.5
q-4 -27 -34 -25q-40 6 -69.5 31t-41 61t-9 75.5t29 77t71.5 61.5q52 25 134.5 28t168 -9.5t183.5 -25t182 -20.5t161 5t123 51q11 10 15 -14q6 -36 -10 -55q-25 -30 -74.5 -45.5t-130 -15.5t-150.5 5t-185 17q-1 -25 -19 -74t-34 -81q-10 -21 -59 -117q37 9 50 11
q34 6 69 -15q35 -23 44 -59q2 -12 -8 -12q-9 0 -17 3q-38 16 -76 10q-60 -10 -89 -16q-10 -1 -18 -9q-3 -7 -7 -14q0 -2 -2 -5t-2 -4q-90 -178 -150 -263q-23 -31 -32 -42q-65 -78 -138 -104q-27 -10 -55 -14q-16 -2 -25 -2zM1220 835v1h-1l-1 1v-1q1 -1 2 -1zM312 768l2 1
q2 1 3 1q1 2 5 6q27 32 37 44l6 6q3 3 4 5l1 1v1v1q-1 1 -1 2q-7 -4 -21 -14l-13 -13q-22 -24 -24 -37zM1198 830v1h-2zM1178 824l-4 2q0 -1 -2 -1zM365 776h4l7 7l17 17q7 7 9 11q1 0 1 2v4h1q4 -1 6 4h-1q-4 1 -6 -4q-1 -1 -2 -1q-2 -1 -3 -1q-17 -6 -33 -36v-3zM1219 819
h2l1 1h-2zM1196 813q0 1 1 2h-3zM697 799q2 0 2 2h-2v-2zM429 765q3 0 4 1q6 4 8 7l8 8l7 10q-11 -2 -26 -21q-1 -1 -1 -2v-3zM690 774q1 1 1 2l1 1v1l1 1l1 3l-3 3l-1 -2v-9zM294 78q4 2 8 6q69 56 220 343q24 45 45 87q15 30 31 61.5t29 59t18 36.5q0 2 1 2v1l9 19
q19 37 30 63l1 1l3 14v1l-1 -1v-1q-63 -114 -86 -158q-8 -12 -13 -23q-3 -5 -5 -10l-38 -70l-3 -6l-41 -77l-67 -124q-5 -10 -15 -28l-9 -16q-10 -19 -19 -34q-2 -3 -6 -11l-7 -13q-57 -97 -85 -122zM699 730l2 2l1 1q0 1 -2 3q0 -1 -1 -2v-4zM693 719q5 1 5 10
q-5 -4 -5 -10zM369 116q47 71 110 176q48 84 74 134q22 43 47 96l70 141q3 4 4 8q1 1 1 2q1 0 1 2q2 3 5 8.5t4 8.5v2q6 10 8 19v1q0 2 -1 3q-3 -3 -35 -67q-3 -5 -7.5 -14t-6.5 -12l-3 -6l-14 -27l-37 -72q-13 -24 -39 -74q-124 -239 -181 -329zM721 678l1 1v2l-1 -1v-2z
M714 660q0 1 1 2l1 1h-1v2l-1 -4v-1zM464 191q54 83 137 247q10 19 31 61q10 19 21 42q9 16 27 52l4.5 9t5.5 12q4 7 7 14h1v1q1 1 1 3l1 2l2 2v1q0 1 2 5l4 7v1l1 2l1 1v1l2 3q-3 -2 -29 -50q0 -1 -0.5 -1t-0.5 -1q-1 -1 -2 -4l-2 -3v-1l-1 -1l-4 -7l-2 -3v-1q-1 0 -1 -1
q-1 -1 -5.5 -8.5l-7.5 -12.5t-9.5 -16.5t-9.5 -17.5q-4 -6 -6 -10v-1q-4 -6 -5 -9l-2 -3q0 -1 -1.5 -3t-2.5 -4q-1 -1 -3 -5q0 -2 -2 -4q-68 -124 -152 -299zM145 353q15 13 47 54q1 1 1 4q-23 -13 -43 -44q-3 -4 -5 -14zM150 407q2 1 5 4q-3 0 -5 -4zM143 402q4 2 5 4
q-3 0 -5 -4zM82 310l3 3q27 45 53 78q2 1 4 9q-19 -10 -35.5 -37.5t-24.5 -52.5zM220 374q12 5 12 16q-11 -7 -12 -16zM205 358q10 2 14 15q-8 -2 -14 -15zM199 347q5 5 5 9zM141 345l1 2l2 4q-4 0 -4 -3q0 -2 1 -3zM78 302q1 1 2 5q-3 -2 -3 -3z" />
    <glyph glyph-name="G" unicode="G" horiz-adv-x="1091" 
d="M660 -130q-76 -19 -136 38q-24 24 -29 30q-8 8 -15 22q-4 8 -1 14t11 4q19 -2 25 1q5 -4 19.5 -8t20.5 -13q3 -5 16 -18q19 -19 45 -10q25 8 49 29q51 48 71 97q2 5 6.5 15t8 18t6.5 15v8q-1 0 -2.5 -0.5t-2.5 -1.5q-5 -3 -22 -11.5l-27 -13.5q-57 -26 -109 21
q-30 26 -61 71q-22 31 -33 94q-9 59 4 113q15 64 36 112q24 56 38 83q15 32 55 88q51 68 121 127l18 15q-72 5 -145.5 1.5t-141.5 -12t-130.5 -31.5t-113 -56.5t-88 -88.5t-56.5 -126q-9 -32 -40 -24q-33 9 -49 48q-30 71 41 153q26 29 64 57q57 42 127 71.5t130 43
t137 19.5t125 5.5t118 -2.5t94 -2l10 3q11 2 26 5t35.5 5.5t41.5 2.5t43 -3t40.5 -12.5t33 -24t22 -39.5t5.5 -57q-2 -29 -10 -53q-23 -54 -44 -78q-13 -12 -25 -7t-21.5 17t-7.5 16q2 3 7 8q33 39 38 97q2 40 -5 47t-39 -5q-23 -8 -48 -28q-77 -56 -150 -149
q-45 -57 -87 -144q-19 -41 -41 -106q-8 -21 -13 -50q-16 -70 -18 -106v-17q1 -5 3 -14t2 -11t2 -6.5t4 -4.5h6t9 1.5t13 4.5q31 11 63 36q57 43 88 81q18 24 32 47q29 51 61 89q14 16 36 34q23 21 55 8l6 -3q14 0 16 -20q14 -8 7 -18q-2 -4 -4 -7q-29 -34 -59 -101
q-16 -38 -46 -114q-46 -113 -88 -178q-76 -114 -183 -141zM305 792v1h-2zM241 785q1 1 2 1q2 0 2 1h-2zM212 746q0 1 1 1q1 -1 16 7t31 17t17 11q-2 0 -18.5 -8t-32 -16.5t-14.5 -10.5v-1zM117 708q94 63 106 68l1 1l2 1h-2h-2q-19 -8 -59.5 -34.5t-45.5 -35.5zM1041 696v2
h-1zM1034 681h1l-1 2v-2zM676 666q8 3 10 15q-10 -10 -10 -15zM736 677l1 1zM730 672q2 1 4 3q-2 0 -4 -3zM609 462l4 6q53 109 113 193l3 9q-1 -1 -5 -3.5t-6 -4.5q-65 -70 -105 -180q-2 -6 -4 -20zM540 383q1 1 3 5l6 18q47 134 111 231q10 18 15 28q-5 0 -11 -8
q-2 -3 -25 -34q-43 -60 -77 -152q-7 -19 -23 -82l1 -3v-3zM775 626h1v1q0 1 1 1zM770 621q2 0 4 3q-2 -1 -4 -3zM677 466q7 7 9 11q34 66 70 119q0 1 1 3.5t1 3.5q10 4 10 17q-10 -6 -11 -15l-6 -3q-45 -58 -70 -119q-1 -3 -2 -8.5t-2 -8.5zM671 449q5 4 5 15q-5 -2 -5 -15z
M606 454v1l1 1l1 4q-1 0 -3 -2zM983 355l2 3q-1 1 -1 2q0 -1 -1 -2v-3zM971 334l11 18q-11 -3 -11 -18zM965 323l5 9q-5 -1 -5 -9zM959 311q5 3 5 10q-3 -1 -5 -10zM947 284q11 13 11 26q-11 -13 -11 -26zM929 248q11 10 17 34q-11 -9 -17 -34zM922 231q6 3 6 14zM916 213
q5 5 5 16q-3 -5 -5 -16zM772 18q7 4 24 33q5 11 11 24t13.5 29t11.5 25l33 76v5q-1 0 -2 -1q-2 0 -2 -1q-12 -18 -16 -28q-49 -113 -70 -150zM897 170q12 10 18 40q-15 -17 -18 -40zM885 142q12 12 12 26q-12 -9 -12 -26zM754 37q1 1 4.5 5t4.5 6q13 24 42 94q2 7 1 10
q0 5 -5 -2q-2 -2 -3 -4l-2.5 -5l-2.5 -5q-6 -15 -18.5 -44t-18.5 -43q-1 -2 -1.5 -6t-0.5 -6zM855 77q3 0 3 1q25 50 27 63l-4 -2l-8.5 -17t-9.5 -20t-8 -18v-7zM849 66q7 0 5 10q-5 -1 -5 -10zM831 34q13 9 17 30q-9 -7 -17 -30zM748 26l3 6q1 3 2 4q-5 -1 -5 -10zM826 22
q5 2 5 11q-5 -2 -5 -11zM745 22q2 2 2 3h-2v-3zM820 13l5 8q-3 -1 -5 -8zM769 13l2 3q-2 1 -2.5 0.5t0.5 -3.5z" />
    <glyph glyph-name="H" unicode="H" horiz-adv-x="1232" 
d="M1064 -198q-53 0 -94 45.5t-59.5 118.5t-2 178t71.5 211q9 17 19 35q-136 18 -220 21v-1q-89 -176 -149 -263q-16 -23 -33 -42q-64 -78 -137 -104q-31 -10 -56 -14q-16 -2 -25 -2q-81 0 -144.5 70t-65.5 160q0 40 7 71q21 96 93.5 148.5t145.5 52.5q75 0 77 -48
q0 -3 -2.5 -6t-4.5 -4t-7 -3t-6 -3q-24 -11 -55 -35q-3 -4 -11 -12q-40 -44 -64 -106t-22 -118q0 -40 13.5 -74.5t41.5 -36.5q1 0 3 -1h1q13 0 32 17q48 44 161 242q34 60 51 91l5 10l-19 -6q-29 -12 -42 -33q-15 -23 -13 -39q0 -7 -4.5 -11.5t-10.5 -3.5q-20 3 -38 33
q-28 50 13 87q40 36 139 45q3 0 8 1t8 1q48 86 82 150q65 123 88 173l3 8q1 0 1 1q-76 4 -135.5 5t-133 -3.5t-130 -16t-116 -34.5t-102.5 -57t-77.5 -86t-51.5 -118q-9 -32 -40 -24q-33 9 -49 48q-30 71 41 153q26 29 64 57q57 42 127 71.5t130 43t137 19.5t125 5.5
t118 -2.5t94 -2h11q29 1 55 11q30 13 45 13q25 0 43 -8.5t24 -18.5t0 -16t-10 -8q-12 -6 -20.5 -13t-14 -13.5t-13 -20.5t-12 -24.5t-16 -36t-20.5 -45.5q-18 -40 -22 -48q0 -1 -2 -5l-6 -12t-5 -11q-25 -50 -69 -134q78 -3 223 -18q20 34 53.5 89.5t58.5 98t41 72.5
q9 16 28 57q1 3 5 11l5.5 11t4.5 10.5t4 11l3 10.5t2.5 12t1 12t-0.5 14l-2 14q-1 4 1.5 7t7.5 3q32 1 56 -20.5t26 -52.5q3 -4 -0.5 -30t-13.5 -56v-1q-18 -50 -40 -93q-33 -65 -105 -196q41 -5 42 -5q2 -21 -3 -33.5t-18 -18t-23.5 -6.5t-31.5 -1q-71 -132 -99 -257
q-15 -62 -16 -111q-5 -142 82 -182q3 -1 3 -4q0 -6 -14.5 -13.5t-28.5 -7.5zM1251 799l2 2l-1 2v3q0 -1 -0.5 -2.5t-1.5 -2.5q0 -1 1 -2zM866 799h1l2 2v1h-3v-3zM305 792v1h-2zM241 785q1 1 2 1q2 0 2 1h-2zM859 774q1 1 1 2q1 1 1 2l1 1l1 3l-1 1q-1 1 -1 2l-2 -2v-9z
M1243 774l4 8q-2 2 -2 3q-2 -3 -2 -11zM212 746q0 1 1 1q1 -1 16 7t31 17t17 11q-2 0 -18.5 -8t-32 -16.5t-14.5 -10.5v-1zM117 708q94 63 106 68l1 1l2 1h-2h-2q-19 -8 -59.5 -34.5t-45.5 -35.5zM464 78l8 6q66 55 210 325q1 2 14.5 28t20.5 39q56 108 97 195l1 2v1l9 19h1
q9 18 30 63v1q0 1 3 14v1q0 -1 -1 -2q-28 -50 -86 -158q-6 -11 -13 -23q-2 -5 -5 -10l-38 -70q-6 -12 -18 -34q-6 -12 -18.5 -34.5t-17.5 -33.5q-10 -17 -28.5 -52.5t-28.5 -52.5l-14 -28h-1l-9 -16q-6 -12 -18 -34q-2 -3 -6 -11q-4 -6 -8 -13q-53 -93 -84 -122zM960 226
l1 2v1q3 3 3 6q43 108 85 183q1 0 1 1q34 62 124 216q0 1 1 2.5t2 2.5t1 2q32 56 60 115q2 3 4 15q-5 -1 -10 -14q-6 -11 -18 -34.5t-23 -43.5l-36 -64l-10 -17q-3 -5 -85 -145q0 -2 -2 -4q-1 -2 -17 -31l-2 -2v-2q-4 -6 -10 -16t-7 -12q-2 -4 -7.5 -16t-8.5 -17t-7.5 -14.5
t-6.5 -12.5q-1 -2 -2.5 -5.5t-1.5 -5.5q-30 -66 -30 -85q0 -1 2 -5zM868 730l2 2l1 1q0 1 -1 3q-1 0 -1 -2q-1 -1 -1 -4zM1251 730l3 3v1l-1 2q-1 0 -1 -2t-1 -4zM862 719q5 1 5 10q-5 -4 -5 -10zM1245 719q5 1 5 10q-5 -4 -5 -10zM538 116q109 166 176 295q23 45 33 65
q91 185 92 187l5 8q0 1 1 2v2q7 11 9 17v1h1v1q6 16 7 19v4q-5 -5 -36 -67l-14 -26l-3 -6l-14 -27l-59 -115q-7 -12 -19 -35t-16 -30q-115 -220 -163 -295zM1015 288q11 18 11 22h1q24 46 25 46v1l16 30l6 10q0 1 1 2t2.5 4t2.5 5.5t2 4.5q2 3 4 7q1 0 1 1t1 1q8 16 12 23
q0 1 1 2l1 2q8 14 31.5 56t39.5 70q43 77 64 117v1l8 20q0 3 -1 4q-2 -2 -6 -8q0 -1 -56 -100t-89 -159q-2 -2 -2 -4q-5 -8 -13 -24h-1q0 -1 -1 -2q0 -1 -3 -6t-4 -9l-3 -6l-2 -3q-4 -8 -7 -12q-3 -5 -7 -15q-9 -16 -9 -17q-22 -37 -26 -64zM890 678l1 1v2q-1 -1 -1 -2v-1z
M1272 678h1l1 1l-1 2l-1 -1v-2zM883 660q0 1 1 2l1 1q0 1 -0.5 1t-0.5 1l-1 -4v-1zM1265 660l2 3q-1 1 -1 2zM634 191q56 88 123 221l33 63q4 9 9.5 19.5t12.5 24.5l11 22l26 52l11 21q3 7 7 14v1q1 1 1 3l2 2q0 1 1 2v1q1 1 3 5l3 7q0 1 1 3q1 1 1 2l2 3q-1 0 -6 -8.5
t-12 -22t-11 -19.5q0 -1 -1 -2q-1 -5 -4 -7v-2h-1l-4 -7q0 -1 -2 -3v-1l-1 -1q-27 -46 -62 -108q-29 -56 -34 -64q-53 -101 -109 -221zM1083 316q17 25 29 56q1 1 3 5v2l15 26v1l1 2q7 12 7 13q1 2 4.5 8.5t5.5 10.5q2 2 2 3q9 17 23 43t22 40.5t8 15.5l60 115
q-4 -2 -119 -213l-2 -4q-14 -24 -25 -48q-3 -2 -4 -7l-3 -6q-16 -34 -23 -50q-4 -8 -4 -13zM314 353q19 16 47 54q1 1 1 4q-24 -15 -43 -44q-2 -2 -3 -7.5t-2 -6.5zM320 407l4 4q-4 0 -4 -4zM312 402q4 2 6 4h-1q-3 0 -5 -4zM251 310l3 3q31 49 54 78l3 9q-18 -10 -35 -37.5
t-25 -52.5zM389 374q12 4 13 16q-12 -8 -13 -16zM375 358q11 3 13 15q-9 -3 -13 -15zM368 347q5 5 5 9q-1 -3 -5 -9zM310 345l1 2l2 4q-4 0 -4 -3q1 -2 1 -3zM248 302l1 5l-2 -3q0 -2 1 -2zM1074 298q0 3 1 4l-2 -2q0 -2 1 -2zM1013 281q1 1 1 5l-2 -2v-1q1 -1 1 -2z
M1066 280l1 1v1v2l-1 -1v-3z" />
    <glyph glyph-name="I" unicode="I" horiz-adv-x="926" 
d="M229 33q-10 13 6 21q4 2 7 2q12 2 22 -5q1 -1 7 -3q22 -9 44 -9.5t41.5 5.5t39 19t35.5 28t33 36t29 38.5t26 40t21.5 37t17.5 33t13 23.5h1q9 18 28 52t22 39q2 2 2 4l44 78q41 75 82 152q57 106 79 153q10 20 13 28q1 0 1 1q-76 4 -135.5 5t-133 -3.5t-130 -16
t-116 -34.5t-102.5 -57t-77.5 -86t-51.5 -118q-9 -32 -40 -24q-33 9 -49 48q-30 71 41 153q26 29 64 57q57 42 127 71.5t130 43t137 19.5t125 5.5t118 -2.5t94 -2q39 0 66.5 12t44.5 12q25 0 43 -8.5t24 -18.5t0 -16t-10 -8q-20 -11 -33 -26.5t-21 -32.5t-30.5 -68
t-47.5 -102q-12 -23 -35 -68t-33 -66q-10 -18 -14 -27q-10 -20 -15 -29q0 -1 -1 -2l-3 -6q-91 -181 -150 -264q-63 -90 -142 -136t-148 -39t-110 61zM305 792v1h-2zM241 785q1 1 2 1q2 0 2 1h-2zM859 774q0 1 1 2v1q1 0 1 1t1 1l1 3l-3 3l-1 -2v-9zM212 746q0 1 1 1
q1 -1 16 7t31 17t17 11q-2 0 -18.5 -8t-32 -16.5t-14.5 -10.5v-1zM117 708q94 63 106 68l1 1l2 1h-2h-2q-19 -8 -59.5 -34.5t-45.5 -35.5zM463 78q6 4 8 6q21 16 57 66q60 85 152 257q17 31 36 68q58 113 97 196l2 2v1l9 19q19 37 30 63v1q2 4 4 14v1v-1l-1 -1
q-69 -124 -87 -158l-12 -23q-3 -5 -5 -10q-8 -14 -22.5 -41t-15.5 -29q-12 -20 -18 -34q-8 -14 -21 -38.5t-17 -32.5l-55 -102q-5 -10 -15 -28l-9 -16q-3 -7 -10 -19t-9 -15t-6 -11q-1 -2 -4 -6.5t-4 -6.5q-12 -23 -27 -46q-34 -56 -57 -76zM868 730l2 2l1 1q0 1 -2 3
q-1 -1 -1 -2v-4zM862 719q5 1 5 10q-5 -4 -5 -10zM538 116q11 17 13 20q95 146 162 275q5 10 11 21t12.5 24t10.5 20q91 186 92 187t2 3.5t2 4.5q1 1 1 2q1 1 1 2q2 3 5 8.5t4 8.5v2q7 12 7 19v4q-3 -3 -35 -67q-3 -5 -7.5 -14t-6.5 -12l-3 -6q-3 -4 -7.5 -13.5t-6.5 -13.5
q-39 -77 -60 -115q-11 -22 -35 -66q-89 -172 -149 -274q-3 -4 -7.5 -11t-5.5 -9zM890 678l1 1v2q-1 0 -1 -0.5t-1 -0.5v-1zM882 660l2 2v3zM633 191q46 71 124 221q21 39 32 64q6 11 60 117l10 21q4 7 7 14q0 1 1 1q0 1 1 3l1 2q1 1 1 2v1q1 1 3 5l3 7l2 3v1l1 1l1 1v2
q-3 -3 -28 -50q0 -1 -0.5 -1t-0.5 -1q-1 -1 -2 -4t-2 -3v-1q-1 0 -1 -1q-2 -4 -6 -10v-1q-1 0 -1 -1q-46 -79 -62 -108l-34 -64q-59 -115 -110 -221z" />
    <glyph glyph-name="J" unicode="J" horiz-adv-x="924" 
d="M379 -15q-81 0 -144.5 70t-65.5 160q0 40 7 71q21 96 93.5 148.5t145.5 52.5q75 0 77 -48q0 -3 -2.5 -6t-4.5 -4t-7 -3t-6 -3q-24 -11 -55 -35q-3 -4 -11 -12q-40 -44 -64 -106t-22 -118q0 -40 13.5 -74.5t41.5 -36.5q1 0 3 -1h1q13 0 32 17q48 44 161 242q34 60 51 91
q83 150 128 234q65 123 88 173l3 8q1 0 1 1q-76 4 -135.5 5t-133 -3.5t-130 -16t-116 -34.5t-102.5 -57t-77.5 -86t-51.5 -118q-9 -32 -40 -24q-33 9 -49 48q-30 71 41 153q26 29 64 57q57 42 127 71.5t130 43t137 19.5t125 5.5t118 -2.5t94 -2h11q29 1 55 11q30 13 45 13
q25 0 43 -8.5t24 -18.5t0 -16t-10 -8q-12 -6 -20.5 -13t-14 -13.5t-13 -20.5t-12 -24.5t-16 -36t-20.5 -45.5q-18 -40 -22 -48q0 -1 -2 -5l-6 -12t-5 -11q-14 -29 -83 -161q-10 -20 -14 -29q-4 -6 -5 -9q-89 -176 -149 -263q-16 -23 -33 -42q-64 -78 -137 -104
q-31 -10 -56 -14q-16 -2 -25 -2zM866 799h1l2 2v1h-3v-3zM305 792v1h-2zM241 785q1 1 2 1q2 0 2 1h-2zM859 774q1 1 1 2q1 1 1 2l1 1l1 3l-1 1q-1 1 -1 2l-2 -2v-9zM212 746q0 1 1 1q1 -1 16 7t31 17t17 11q-2 0 -18.5 -8t-32 -16.5t-14.5 -10.5v-1zM117 708q94 63 106 68
l1 1l2 1h-2h-2q-19 -8 -59.5 -34.5t-45.5 -35.5zM464 78l8 6q100 84 342 587l1 2v1l9 19h1q9 18 30 63v1q0 1 3 14v1q0 -1 -1 -2q-28 -50 -86 -158q-6 -11 -13 -23q-2 -5 -5 -10l-38 -70q-63 -120 -111 -207l-14 -28h-1l-9 -16q-6 -12 -18 -34q-2 -3 -6 -11q-4 -6 -8 -13
q-53 -93 -84 -122zM868 730l2 2l1 1q0 1 -1 3q-1 0 -1 -2q-1 -1 -1 -4zM862 719q5 1 5 10q-5 -4 -5 -10zM538 116q63 96 111 179t71.5 128.5t60 121t58.5 118.5l5 8q0 1 1 2v2q7 11 9 17v1h1v1q6 16 7 19v4q-5 -5 -36 -67l-14 -26l-3 -6l-14 -27q-191 -373 -257 -475z
M890 678l1 1v2l-1 -1v-2zM883 660q0 1 1 2l1 1q0 1 -0.5 1t-0.5 1l-1 -4v-1zM634 191q57 89 189 350l26 52l11 21q3 7 7 14v1q1 1 1 3l2 2q0 1 1 2v1q1 1 3 5l3 7q0 1 1 3q1 1 1 2l2 3q-1 0 -6 -8.5t-12 -22t-11 -19.5q0 -1 -1 -2q-1 -5 -4 -7v-2h-1l-4 -7q0 -1 -2 -3v-1
l-1 -1q-95 -160 -205 -393zM314 353q19 16 47 54q1 1 1 4q-24 -15 -43 -44q-2 -2 -3 -7.5t-2 -6.5zM320 407l4 4q-4 0 -4 -4zM312 402q4 2 6 4h-1q-3 0 -5 -4zM251 310l3 3q31 49 54 78l3 9q-18 -10 -35 -37.5t-25 -52.5zM389 374q12 4 13 16q-12 -8 -13 -16zM375 358
q11 3 13 15q-9 -3 -13 -15zM368 347q5 5 5 9q-1 -3 -5 -9zM310 345l1 2l2 4q-4 0 -4 -3q1 -2 1 -3zM248 302l1 5l-2 -3q0 -2 1 -2z" />
    <glyph glyph-name="K" unicode="K" horiz-adv-x="1179" 
d="M959 -30q-50 0 -86.5 21t-55 52.5t-32.5 71.5t-21 75.5t-18 66t-25 42.5q-1 0 -1 -2q0 -1 -1 -2q0 -1 -0.5 -1t-0.5 -1v-1q-55 -97 -88 -145q-16 -23 -33 -42q-64 -78 -137 -104q-31 -10 -56 -14q-16 -2 -25 -2q-81 0 -144.5 70t-65.5 160q0 40 7 71q21 96 93.5 148.5
t145.5 52.5q75 0 77 -48q0 -3 -2.5 -6t-4.5 -4t-7 -3t-6 -3q-24 -11 -55 -35q-3 -4 -11 -12q-40 -44 -64 -106t-22 -118q0 -40 13.5 -74.5t41.5 -36.5q1 0 3 -1h1q13 0 32 17q48 44 161 242q34 60 51 91q83 150 128 234q65 123 88 173l3 8q1 0 1 1q-76 4 -135.5 5t-133 -3.5
t-130 -16t-116 -34.5t-102.5 -57t-77.5 -86t-51.5 -118q-9 -32 -40 -24q-33 9 -49 48q-30 71 41 153q26 29 64 57q57 42 127 71.5t130 43t137 19.5t125 5.5t118 -2.5t94 -2h11q29 1 55 11q30 13 45 13q25 0 43 -8.5t24 -18.5t0 -16t-10 -8q-12 -6 -20.5 -13t-14 -13.5
t-13 -20.5t-12 -24.5t-16 -36t-20.5 -45.5q-18 -40 -22 -48q0 -1 -2 -5l-6 -12t-5 -11q-14 -29 -83 -161q-10 -20 -14 -29q-4 -6 -5 -9q-10 -20 -15 -29q1 0 2 1h2q69 28 152 113t174 190t151 153q41 35 95 35q72 0 101 -43q18 -28 1 -43q-7 -6 -19 -6q-66 0 -168 -112v1
q-2 -2 -3 -4q-20 -22 -68 -77.5t-79 -88.5t-77 -75t-92.5 -68.5t-94.5 -37.5q-5 -2 -5 -6v-1q36 -52 53 -110.5t29.5 -105t41.5 -77.5q5 -5 11 -5q3 0 26 9t36 9q19 0 19 -13q0 -17 -32 -33t-61 -16zM866 799h1l2 2v1h-3v-3zM305 792v1h-2zM241 785q1 1 2 1q2 0 2 1h-2z
M859 774q1 1 1 2q1 1 1 2l1 1l1 3l-1 1q-1 1 -1 2l-2 -2v-9zM212 746q0 1 1 1q1 -1 16 7t31 17t17 11q-2 0 -18.5 -8t-32 -16.5t-14.5 -10.5v-1zM936 429q16 7 53 44q11 12 30.5 32.5t36 37.5t30.5 33l23 24q19 21 73 81t84 92l5 9q-8 -2 -21 -15q-26 -27 -76 -81l-95 -105z
M931 383h5l33 23q46 36 91 86l63 69l63 71q61 69 69 77q9 10 56 57l3.5 3.5t4 4.5t1.5 5q-10 -5 -12 -7q-17 -15 -34.5 -33t-32.5 -34.5t-51.5 -57.5t-71.5 -80q-8 -9 -24 -26.5t-23 -25.5q-62 -68 -129 -122q-6 -4 -8 -6zM957 497q4 1 13.5 10t21.5 21l23 23t20 21l9 9
q0 1 11 12q164 180 165 186q-30 -30 -173 -185q-28 -32 -41 -45l-1 -1q-41 -41 -48 -51zM117 708q94 63 106 68l1 1l2 1h-2h-2q-19 -8 -59.5 -34.5t-45.5 -35.5zM464 78l8 6q100 84 342 587l1 2v1l9 19h1q9 18 30 63v1q0 1 3 14v1q0 -1 -1 -2q-28 -50 -86 -158
q-6 -11 -13 -23q-2 -5 -5 -10l-38 -70q-63 -120 -111 -207l-14 -28h-1l-9 -16q-6 -12 -18 -34q-2 -3 -6 -11q-4 -6 -8 -13q-53 -93 -84 -122zM868 730l2 2l1 1q0 1 -1 3q-1 0 -1 -2q-1 -1 -1 -4zM862 719q5 1 5 10q-5 -4 -5 -10zM1210 708q7 1 16 16q-8 -2 -16 -16zM538 116
q63 96 111 179t71.5 128.5t60 121t58.5 118.5l5 8q0 1 1 2v2q7 11 9 17v1h1v1q6 16 7 19v4q-5 -5 -36 -67l-14 -26l-3 -6l-14 -27q-191 -373 -257 -475zM1205 702q4 0 4 4zM1201 696q4 0 3 4zM1150 690q3 0 3 4zM1197 690q4 0 3 4zM1192 684q5 0 4 5q-4 0 -4 -5zM1188 677
q4 0 4 6q-6 0 -4 -6zM890 678l1 1v2l-1 -1v-2zM1183 672q5 0 4 5q-4 0 -4 -5zM1179 666q4 0 4 5q-6 0 -4 -5zM1133 666q3 0 3 4zM1252 666l3 3q0 -1 -3 -3zM883 660q0 1 1 2l1 1q0 1 -0.5 1t-0.5 1l-1 -4v-1zM1175 660l3 5q-5 0 -3 -5zM1171 654l3 5q-5 0 -3 -5zM634 191
q28 43 56 95l2 2q6 10 12.5 22.5t15 29t14.5 27.5l5 9l2 5q26 49 82 160l26 52l11 21q3 7 7 14v1q1 1 1 3l2 2q0 1 1 2v1q1 1 3 5l3 7q0 1 1 3q1 1 1 2l2 3q-1 0 -6 -8.5t-12 -22t-11 -19.5q0 -1 -1 -2q-1 -5 -4 -7v-2h-1l-4 -7q0 -1 -2 -3v-1l-1 -1q-95 -160 -205 -393z
M1166 648q1 2 4 5q-4 0 -4 -5zM1120 648q3 0 3 4zM1162 642l3 5q-5 0 -3 -5zM1157 636q3 3 4 5q-4 0 -4 -5zM314 353q19 16 47 54q1 1 1 4q-24 -15 -43 -44q-2 -2 -3 -7.5t-2 -6.5zM320 407l4 4q-4 0 -4 -4zM312 402q4 2 6 4h-1q-3 0 -5 -4zM251 310l3 3q31 49 54 78l3 9
q-18 -10 -35 -37.5t-25 -52.5zM389 374q12 4 13 16q-12 -8 -13 -16zM375 358q11 3 13 15q-9 -3 -13 -15zM368 347q5 5 5 9q-1 -3 -5 -9zM310 345l1 2l2 4q-4 0 -4 -3q1 -2 1 -3zM248 302l1 5l-2 -3q0 -2 1 -2zM851 41v3q0 2 -1.5 5.5t-2.5 5.5q-27 57 -46 123l-9 30l-1 5
l-7 22q-2 7 -6 15q0 2 -3 2l-1 1v-4q1 -6 5 -17t5 -16l3 -8q23 -84 32 -108q2 -2 2 -4q14 -37 24 -50l3 -3q2 -2 3 -2zM872 67q-1 3 -1 8q-1 2 -3.5 7.5t-3.5 8.5l-37 112q-2 4 -4.5 12.5t-5 15t-5.5 11.5l-2 3l-3 3h-1q-1 0 -1 -2q0 -1 0.5 -2.5t0.5 -2.5q6 -20 10 -30v-3
l1 -2l18 -56l15 -44l15 -32z" />
    <glyph glyph-name="L" unicode="L" horiz-adv-x="944" 
d="M772 -159q-49 0 -100 18.5t-85.5 41t-70 41t-56.5 18.5q-6 0 -10 -2q-48 -19 -86 14q-18 14 -26 38q-4 10 1 20t16 14q51 15 104 77q16 18 30.5 39t28 43t21.5 36.5t19 35.5t13 24h1q9 18 28 52t22 39q73 130 128 234q57 106 79 153q10 20 13 28q1 0 1 1q-76 4 -135.5 5
t-133 -3.5t-130 -16t-116 -34.5t-102.5 -57t-77.5 -86t-51.5 -118q-9 -32 -40 -24q-33 9 -49 48q-30 71 41 153q26 29 64 57q57 42 127 71.5t130 43t137 19.5t125 5.5t118 -2.5t94 -2q39 0 66.5 12t44.5 12q25 0 43 -8.5t24 -18.5t0 -16t-10 -8q-20 -11 -33 -26.5t-21 -32.5
t-30.5 -68t-47.5 -102q-31 -63 -82 -161q-10 -20 -15 -29q-96 -191 -154 -272q-28 -39 -56 -67q-14 -18 -44 -52l-1 -4q21 0 55.5 -21t82 -42.5t101.5 -21.5q33 0 58.5 5.5t38.5 13.5t21.5 16.5t10.5 13.5l2 6q24 0 28 -31q6 -43 -33 -80q-43 -42 -121 -42zM305 792v1h-2z
M241 785q1 1 2 1q2 0 2 1h-2zM859 774q0 1 1 2v1q1 0 1 1t1 1l1 3l-3 3l-1 -2v-9zM212 746q0 1 1 1q1 -1 16 7t31 17t17 11q-2 0 -18.5 -8t-32 -16.5t-14.5 -10.5v-1zM117 708q94 63 106 68l1 1l2 1h-2h-2q-19 -8 -59.5 -34.5t-45.5 -35.5zM484 95q18 20 44 55
q119 169 285 521l2 2v1l9 19q19 37 30 63v1q2 4 4 14v1v-1l-1 -1q-69 -124 -87 -158l-12 -23q-3 -5 -5 -10q-8 -14 -22.5 -41t-15.5 -29q-12 -22 -52 -97.5t-59 -109.5q-5 -10 -15 -28l-9 -16q-3 -7 -10 -19t-9 -15t-6 -11q-1 -2 -4 -6.5t-4 -6.5q-12 -23 -27 -46
q-22 -36 -39 -57zM868 730l2 2l1 1q0 1 -2 3q-1 -1 -1 -2v-4zM862 719q5 1 5 10q-5 -4 -5 -10zM538 116q11 17 13 20q59 91 104.5 170t68 123.5t58 117.5t57.5 116q1 1 2 3.5t2 4.5q1 1 1 2q1 1 1 2q2 3 5 8.5t4 8.5v2q7 12 7 19v4q-3 -3 -35 -67q-3 -5 -7.5 -14t-6.5 -12
l-3 -6q-3 -4 -7.5 -13.5t-6.5 -13.5q-188 -361 -244 -455q-3 -4 -7.5 -11t-5.5 -9zM890 678l1 1v2q-1 0 -1 -0.5t-1 -0.5v-1zM882 660l2 2v3zM633 191q41 64 77 131.5t139 270.5l10 21q4 7 7 14q0 1 1 1q0 1 1 3l1 2q1 1 1 2v1q1 1 3 5l3 7l2 3v1l1 1l1 1v2q-3 -3 -28 -50
q0 -1 -0.5 -1t-0.5 -1q-1 -1 -2 -4t-2 -3v-1q-1 0 -1 -1q-2 -4 -6 -10v-1q-1 0 -1 -1q-86 -138 -206 -393z" />
    <glyph glyph-name="M" unicode="M" horiz-adv-x="1499" 
d="M1323 -198q-57 0 -97 47t-56 122.5t-2 179t60 207.5q33 78 68 137q10 18 29.5 49.5t26.5 44.5q9 14 25 42l51 87q8 14 14 28q2 5 -1 5q-1 1 -2.5 1t-2.5 -1l-14 -14q-46 -50 -97 -123q-61 -85 -150 -228q-60 -100 -81 -133q-24 -40 -46 -73q-2 -3 -19 -20q-10 -9 -25 -7
q-9 0 -19 3.5t-16 7.5t-16 11t-15 10q-26 16 -33 54q-3 12 -5 38q-8 96 33 195q14 33 37 68q17 27 50 77t41 62l59 92q0 1 1 3.5t1 3.5q-3 -2 -8 -6t-9 -7.5t-7 -7.5q-114 -129 -199.5 -245t-251.5 -377q-2 -4 -8 -12q-9 -13 -36 -11l-6 -7q-64 -78 -137 -104
q-31 -10 -56 -14q-16 -2 -25 -2q-81 0 -144.5 70t-65.5 160q0 40 7 71q21 96 93.5 148.5t145.5 52.5q75 0 77 -48q0 -3 -2.5 -6t-4.5 -4t-7 -3t-6 -3q-24 -11 -55 -35q-3 -4 -11 -12q-40 -44 -64 -106t-22 -118q0 -40 13.5 -74.5t41.5 -36.5q1 0 3 -1h1q13 0 32 17
q48 44 161 242q34 60 51 91q83 150 128 234q65 123 88 173l3 8q1 0 1 1q-76 4 -135.5 5t-133 -3.5t-130 -16t-116 -34.5t-102.5 -57t-77.5 -86t-51.5 -118q-9 -32 -40 -24q-33 9 -49 48q-30 71 41 153q26 29 64 57q57 42 127 71.5t130 43t137 19.5t125 5.5t118 -2.5t94 -2
h11q29 1 55 11q30 13 45 13q25 0 43 -8.5t24 -18.5t0 -16t-10 -8q-12 -6 -20.5 -13t-14 -13.5t-13 -20.5t-12 -24.5t-16 -36t-20.5 -45.5q-18 -40 -22 -48q0 -1 -2 -5l-6 -12t-5 -11q-27 -55 -64 -124q67 90 141.5 182.5t113 137.5t43.5 50q28 37 75 34.5t78 -42.5
q12 -16 13 -38q0 -40 -17 -70q-30 -56 -47 -83q-42 -63 -122 -195q-50 -86 -66 -179q-1 -2 2 -7q5 2 5 3q7 10 26.5 37t29.5 42q22 33 63.5 99.5t63.5 99.5q68 102 92 135q19 27 85 111q7 9 23 25q35 34 82 26q11 -1 28 -8q50 -22 50 -77q1 -9 -1 -29q-1 -10 -7 -32
q-21 -72 -59 -138q-16 -28 -51 -88t-52 -92q-63 -112 -95 -206q-2 -6 -2 -8q-22 -66 -29.5 -131t11 -129t70.5 -88q2 -1 2 -4q0 -6 -14.5 -13.5t-28.5 -7.5zM1178 808v2q12 12 9 23l-2 1q-9 -13 -7 -24l-1 -1zM1193 773l1 1v1q6 1 4 10h1v1q4 1 6.5 3.5t3.5 5t2 7.5t2 7
l-2 3q-1 0 -2 -1q-2 0 -2 -1q-6 -16 -8 -24h-1v-1q-2 -6 -4 -10q0 -1 -1 -1v-1zM866 799h1l2 2v1h-3v-3zM1443 684h3l-1 2l5 9q0 1 1 1v2l3 9l1 1h1v1q5 4 4 11l1 1v1q3 0 4 1q19 30 24 67q0 1 -3 4q-2 -1 -2 -2q-4 -11 -11.5 -35t-11.5 -35l-1 -1v-1q-2 -6 -4 -11h-1
q0 -1 -1 -2q-3 -3 -3 -9q-1 0 -1 -2v-1q-5 -1 -5 -9v-1zM305 792v1h-2zM241 785q1 1 2 1q2 0 2 1h-2zM859 774q1 1 1 2q1 1 1 2l1 1l1 3l-1 1q-1 1 -1 2l-2 -2v-9zM212 746q0 1 1 1q1 -1 16 7t31 17t17 11q-2 0 -18.5 -8t-32 -16.5t-14.5 -10.5v-1zM1240 749l4 2l9 21v5
q0 1 -1 3q-1 0 -3 -2l-9 -27v-2zM117 708q94 63 106 68l1 1l2 1h-2h-2q-19 -8 -59.5 -34.5t-45.5 -35.5zM464 78l8 6q100 84 342 587l1 2v1l9 19h1q9 18 30 63v1q0 1 3 14v1q0 -1 -1 -2q-28 -50 -86 -158q-6 -11 -13 -23q-2 -5 -5 -10l-38 -70q-63 -120 -111 -207l-14 -28
h-1l-9 -16q-6 -12 -18 -34q-2 -3 -6 -11q-4 -6 -8 -13q-53 -93 -84 -122zM1477 680q4 2 5 3l3 3l9 18q3 5 7 15q2 4 3.5 9.5t3 12.5t2.5 11q0 1 -2 5l-3 -3q-3 -7 -8.5 -20.5t-10 -24.5t-8.5 -21q-1 -3 -1 -8zM868 730l2 2l1 1q0 1 -1 3q-1 0 -1 -2q-1 -1 -1 -4zM862 719
q5 1 5 10q-5 -4 -5 -10zM1503 605q0 1 0.5 1t0.5 1l6 12h1v1q6 4 4 12h1v1q5 2 5 11v1q23 32 27 68l1 1v2l2 3q0 1 -0.5 1t-0.5 1q0 -1 -0.5 -2.5t-0.5 -2.5l-1 -1v-1v-1q-4 -2 -5 -4q-9 -23 -11 -29h-1v-1q-4 -10 -5 -15l-2 -3q0 -1 -1 -3t-1 -3q-1 -3 -1 -10l-1 -1h1
q-7 -2 -5 -11h-1v-1q-6 -2 -4 -12h-1v-1q-4 0 -8 -9q-1 -1 1 -5zM538 116q63 96 111 179t71.5 128.5t60 121t58.5 118.5l5 8q0 1 1 2v2q7 11 9 17v1h1v1q6 16 7 19v4q-5 -5 -36 -67l-14 -26l-3 -6l-14 -27q-191 -373 -257 -475zM890 678l1 1v2l-1 -1v-2zM1434 598
q1 2 2.5 5.5t1.5 4.5h1v1l2 1q5 3 9 15h1v1q4 4 4 9v3l1 1l3 2q9 7 12 21v5h1v1q2 0 2 1q2 1 4 5q0 1 -0.5 2.5t-0.5 2.5q-7 -2 -5 -11h-1v-1q-11 -7 -15 -28h-1v-1q-6 -4 -5 -11l1 -1h-1v-1h-1q-8 -1 -10 -16h-1v-1q-4 -2 -4 -10zM883 660q0 1 1 2l1 1q0 1 -0.5 1t-0.5 1
l-1 -4v-1zM688 303l52 76q7 14 22.5 43.5t30.5 59t30 59.5l26 52l11 21q3 7 7 14v1q1 1 1 3l2 2q0 1 1 2v1q1 1 3 5l3 7q0 1 1 3q1 1 1 2l2 3q-1 0 -6 -8.5t-12 -22t-11 -19.5q0 -1 -1 -2q-1 -5 -4 -7v-2h-1l-4 -7q0 -1 -2 -3v-1l-1 -1q-69 -115 -151 -281zM1424 581h1
q2 2 2 5v3q1 1 1 2l4 3l2 2v1h-1q-4 -4 -6 -5v-3zM1421 578l2 1l1 1h-2q0 -1 -1 -2zM1346 450q7 2 11 16h1v1q4 3 4 11l1 1q2 1 6 5q1 2 2.5 6t2.5 6q0 2 1 3l-2 -2q-1 -2 -2.5 -6t-2.5 -6l-6 -6v-1q-4 -2 -4 -11h-1v-1q-7 -2 -11 -16zM962 343q1 2 1 5l2 2v1q1 1 2 2.5
t2 2.5q16 44 37 106q2 3 2 10h1q0 1 -1 1q7 2 5 11l1 1v1q4 1 4 9l1 1l1 1h-2v-2q-2 -6 -4 -9l-1 -1v-1q-7 -3 -5 -11v-1q-4 0 -4 -1q-36 -57 -39 -120l-1 -1q0 -1 -1 -2l-1 -1v-2v-2zM1206 173q4 7 5 14q1 5 9 41q15 57 41 118q4 9 11 25.5t8 18.5q1 3 12 29h1q0 1 -0.5 1
t-0.5 1l5 10h1v1q6 3 4 11q0 1 1 1v1q6 1 10 15h1q4 7 5 13q4 8 5 11l1 2l-1 -1l-6 -11l-4 -13l-1 -1q-8 -2 -10 -15q-1 0 -1 -1v-1q-6 -3 -4 -11h-1v-1q-5 -2 -5 -10v-2q-3 0 -5 -2l-3 -3t-2 -4.5t-2 -4.5q-50 -104 -62 -150q-3 -11 -13 -65q-1 -7 1 -17zM928 327
q3 1 3.5 3.5t0 5t0.5 4.5q2 6 4.5 18.5t4.5 18.5q16 54 25 81l7 19v3h-3q-1 0 -1 -1q-21 -31 -36 -95q-2 -8 -4.5 -22.5t-3.5 -19.5zM1341 438q7 3 5 11q-7 -3 -5 -11zM1241 189q1 1 1 2v10l1 1v1q5 7 5 8q17 50 32 87q19 50 42 95l12 26q2 4 7 18q-2 0 -4 -1t-3 -2.5t-2 -4
t-2 -3.5q-6 -13 -18.5 -37t-22 -44t-17.5 -38q-6 -14 -15 -41.5t-11 -34.5q-5 -16 -3 -28h-1v-2q0 -1 -1 -2.5l-2 -3t-1 -2.5t3 -4zM1015 338q6 7 10 24q2 6 6.5 18t6.5 18q1 2 1.5 7.5t0.5 7.5l2 2h1v2l-1 -2h-2v-2q-9 -12 -20 -46q-2 -5 -3 -15.5t-2 -13.5zM314 353
q19 16 47 54q1 1 1 4q-24 -15 -43 -44q-2 -2 -3 -7.5t-2 -6.5zM320 407l4 4q-4 0 -4 -4zM312 402q4 2 6 4h-1q-3 0 -5 -4zM251 310l3 3q31 49 54 78l3 9q-18 -10 -35 -37.5t-25 -52.5zM389 374q12 4 13 16q-12 -8 -13 -16zM375 358q11 3 13 15q-9 -3 -13 -15zM368 347
q5 5 5 9q-1 -3 -5 -9zM310 345l1 2l2 4q-4 0 -4 -3q1 -2 1 -3zM1341 315q5 1 5 8v2h1v1q1 0 1 0.5t1 0.5q2 2 2 4v6h1q0 1 1 1q1 1 1 2v-1l-1 -1h-2v-1q-5 -5 -4 -11h-1v-1q-1 0 -2 -1q-3 -2 -3 -9zM1010 320h1l1 1q-1 0 -1 1zM1330 291q7 2 5 11h1v1q5 1 5 11q-7 -2 -5 -11
h-1v-1l-1 -1h-1q-5 -3 -3 -10zM248 302l1 5l-2 -3q0 -2 1 -2zM1285 165v3q1 1 1 4h1v2l3 3l33 88q1 4 1 13h1v1q5 1 5 11q-7 -1 -5 -11h-1v-1q-2 -1 -5 -4q-11 -27 -31 -81q-1 -3 -1 -19l-1 -1v-1l-3 -3q0 -2 2 -4zM1202 147l1 3h-2z" />
    <glyph glyph-name="N" unicode="N" horiz-adv-x="1259" 
d="M1081 -198q-37 0 -71.5 23.5t-58.5 73.5t-30.5 118.5t15.5 169t76 214.5l76 156q80 159 95 191q5 9 12 27t9 22v5q-2 2 -5 2l-33 -24q-62 -60 -91 -91q-87 -93 -202 -244q-93 -125 -196 -238q-8 -9 -24 -25l-23 -35q-16 -23 -33 -42q-64 -78 -137 -104q-31 -10 -56 -14
q-16 -2 -25 -2q-81 0 -144.5 70t-65.5 160q0 40 7 71q21 96 93.5 148.5t145.5 52.5q75 0 77 -48q0 -3 -2.5 -6t-4.5 -4t-7 -3t-6 -3q-24 -11 -55 -35q-3 -4 -11 -12q-40 -44 -64 -106t-22 -118q0 -40 13.5 -74.5t41.5 -36.5q1 0 3 -1h1q13 0 32 17q48 44 161 242
q34 60 51 91q83 150 128 234q65 123 88 173l3 8q1 0 1 1q-76 4 -135.5 5t-133 -3.5t-130 -16t-116 -34.5t-102.5 -57t-77.5 -86t-51.5 -118q-9 -32 -40 -24q-33 9 -49 48q-30 71 41 153q26 29 64 57q57 42 127 71.5t130 43t137 19.5t125 5.5t118 -2.5t94 -2h11q29 1 55 11
q30 13 45 13q25 0 43 -8.5t24 -18.5t0 -16t-10 -8q-12 -6 -20.5 -13t-14 -13.5t-13 -20.5t-12 -24.5t-16 -36t-20.5 -45.5q-18 -40 -22 -48q0 -1 -2 -5l-6 -12t-5 -11q-14 -29 -83 -161l-9 -18q8 11 36.5 52t44.5 63q39 52 94 119q70 87 158 172q6 6 19 15.5t17 13.5
q16 11 38 13q30 4 61 -4q39 -12 70 -50q13 -18 17 -37l1 -7q8 -39 -3 -70q-14 -46 -34 -84q-8 -16 -74 -124q-44 -72 -64 -108q-27 -47 -58 -106q-2 -3 -6 -11q-27 -52 -45 -117.5t-23 -133t15.5 -122.5t68.5 -77q2 -1 2 -4q0 -6 -14.5 -13.5t-28.5 -7.5zM1108 526
q4 1 6.5 4t4.5 7.5t3 6.5q9 18 25.5 49t29.5 56.5t25 48.5q9 16 29 61q9 18 10 32v6q0 3 -2 9q0 -1 -2 -3t-2 -3q-16 -51 -50 -116q-16 -30 -24 -46q-9 -16 -24 -46l-20 -40q-10 -20 -9 -26zM866 799h1l2 2v1h-3v-3zM305 792v1h-2zM241 785q1 1 2 1q2 0 2 1h-2zM859 774
q1 1 1 2q1 1 1 2l1 1l1 3l-1 1q-1 1 -1 2l-2 -2v-9zM212 746q0 1 1 1q1 -1 16 7t31 17t17 11q-2 0 -18.5 -8t-32 -16.5t-14.5 -10.5v-1zM117 708q94 63 106 68l1 1l2 1h-2h-2q-19 -8 -59.5 -34.5t-45.5 -35.5zM464 78l8 6q100 84 342 587l1 2v1l9 19h1q9 18 30 63v1
q0 1 3 14v1q0 -1 -1 -2q-28 -50 -86 -158q-6 -11 -13 -23q-2 -5 -5 -10l-38 -70q-63 -120 -111 -207l-14 -28h-1l-9 -16q-6 -12 -18 -34q-2 -3 -6 -11q-4 -6 -8 -13q-53 -93 -84 -122zM999 206q4 4 12 27l33 78q35 75 94 185q14 27 98 179q0 1 1 1v1q16 32 22 49q2 5 3.5 11
t3 13.5t2.5 11.5l-2 4l-2 -2l-9 -18q-30 -72 -74 -151q-52 -95 -55 -101q-71 -133 -95 -190q-12 -26 -30 -80q-1 -3 -1.5 -9.5t-0.5 -8.5zM868 730l2 2l1 1q0 1 -1 3q-1 0 -1 -2q-1 -1 -1 -4zM862 719q5 1 5 10q-5 -4 -5 -10zM1262 602q6 4 7 6q23 40 26 47t8.5 21.5
t8.5 20.5q1 3 2 9t1 7q1 1 0 3t-1 3l-4 -4l-48 -108v-5zM601 223q3 5 24 31q48 79 82 143t72.5 144.5t59.5 121.5l5 8q0 1 1 2v2q7 11 9 17v1h1v1q6 16 7 19v4q-5 -5 -36 -67l-14 -26l-3 -6l-14 -27q-139 -268 -194 -368zM890 678l1 1v2l-1 -1v-2zM883 660q0 1 1 2l1 1
q0 1 -0.5 1t-0.5 1l-1 -4v-1zM698 323l15 16q20 25 27 50h2q-4 -8 -10 -24v-2q14 26 46 89.5t45 88.5l26 52l11 21q3 7 7 14v1q1 1 1 3l2 2q0 1 1 2v1q1 1 3 5l3 7q0 1 1 3q1 1 1 2l2 3q-1 0 -6 -8.5t-12 -22t-11 -19.5q0 -1 -1 -2q-1 -5 -4 -7v-2h-1l-4 -7q0 -1 -2 -3v-1
l-1 -1q-71 -122 -141 -261zM1252 585q12 5 9 16q-9 -3 -9 -16zM1247 579q4 0 4 4zM1243 568q3 2 3 9zM1233 551q3 2 3 8zM1078 468q16 10 15 29q15 9 14 28q-15 -10 -14 -28q-15 -8 -15 -29zM1188 476q0 2 2 8q-4 -4 -2 -8zM959 170q4 6 9 27q0 3 2 5q4 16 7 24
q18 58 59 147q8 19 8 22v2q1 1 2 1q2 0 2 2l8 15q3 8 10.5 23.5t11.5 23.5v5q-4 0 -6 -2.5t-4 -7.5t-2 -6q-22 -41 -23 -53q-1 -1 -3 -2.5t-3 -2.5q-41 -82 -63 -148q-7 -19 -12 -43zM1172 451q7 4 9 15h-1q-7 -5 -8 -14v-1zM1152 416q1 0 1 1q6 2 8 14q-9 -3 -9 -15z
M1142 398q1 1 2 1q7 4 7 13v3q-9 -6 -9 -17zM314 353q19 16 47 54q1 1 1 4q-24 -15 -43 -44q-2 -2 -3 -7.5t-2 -6.5zM320 407l4 4q-4 0 -4 -4zM312 402q4 2 6 4h-1q-3 0 -5 -4zM251 310l3 3q31 49 54 78l3 9q-18 -10 -35 -37.5t-25 -52.5zM1137 386q4 4 4 9v2q-4 -2 -4 -10
v-1zM389 374q12 4 13 16q-12 -8 -13 -16zM1132 382l4 3q-2 0 -4 -3zM1127 369q1 0 2 1q2 2 2 5v5q-4 -3 -4 -11zM375 358q11 3 13 15q-9 -3 -13 -15zM1122 363q3 0 5 5q-5 0 -5 -5zM1117 351q6 2 4 11q-5 -4 -4 -11zM368 347q5 5 5 9q-1 -3 -5 -9zM310 345l1 2l2 4
q-4 0 -4 -3q1 -2 1 -3zM1107 334q2 1 3.5 2.5t2.5 1.5v1q0 1 0.5 1t0.5 1l3 9q-4 -2 -5 -3q-3 -2 -5 -11v-2zM1103 322l1 1h1l2 4q0 4 -1 6h-1q-5 -3 -3 -9q0 -2 1 -2zM1092 305q7 2 9 13q1 1 1 3l-1 -1q-9 -1 -9 -15zM248 302l1 5l-2 -3q0 -2 1 -2zM1088 293q6 3 4 9v2
q-7 -3 -4 -11zM1073 264q10 7 14 27q-14 -7 -14 -27zM1068 252q6 2 4 11q-6 -2 -4 -11zM1063 240q6 2 4 11q-6 -1 -4 -11zM1058 228q5 2 5 11q-7 -1 -5 -11zM1049 200q10 18 9 27q-11 -9 -9 -27zM998 197v3q1 1 1 4q-3 -2 -3 -3zM1042 181v5v-1q-1 -1 -1 -2q1 -1 1 -2z
M538 116q5 6 12.5 17.5t9.5 14.5l3 8q-19 -32 -25 -40z" />
    <glyph glyph-name="O" unicode="O" horiz-adv-x="1215" 
d="M720 -29q-81 -8 -143 41q-79 63 -110 150t-15 176.5t61.5 179t114.5 165t149 126.5q-97 4 -175 0.5t-164.5 -21.5t-149.5 -51.5t-115.5 -94.5t-77.5 -146q-10 -33 -42 -23.5t-47 48.5q-26 71 49 153q26 28 64 56q58 42 129 71.5t131.5 43t138 19.5t125.5 5.5t118 -2.5
t94 -2h11q25 2 35 5l12 3q35 11 76 14q26 0 39 -1q33 -4 46 -23l2 -2q4 -5 1.5 -10t-9.5 -6q-6 -1 -19 -1q-32 0 -65 -9q-62 -17 -118 -72q-18 -18 -35.5 -38.5t-34 -43.5t-28.5 -40.5t-27.5 -44t-21.5 -37.5t-20 -37t-15 -28q-21 -36 -42 -105.5t-32.5 -158t14.5 -151.5
q6 -11 14 -23q11 -14 33 -16q75 -5 160.5 50.5t149.5 133.5t100 157q31 70 46 121q14 56 18 112q1 28 -8 68q-5 21 -22 46q-20 26 -53 23q-50 -4 -95 -37q-45 -34 -72 -89q-38 -79 -21 -156q1 -2 0 -6t-1 -5q0 -4 -3.5 -8t-7.5 -3q-27 2 -33 8q-2 2 -5.5 5t-6.5 5.5t-6 4.5
q-15 11 -24 38.5t-8.5 65.5t29 86t84.5 90q68 53 154 47q69 -6 110 -59q33 -43 39 -100q7 -73 -19 -175q-25 -102 -60.5 -167t-101.5 -144q-87 -105 -219 -162q-32 -14 -75 -19zM313 792v1h-2zM249 785q1 1 2 1t2 1h-2zM218 746q0 1 1 1q1 -1 16.5 7t31.5 17t18 11
q-3 0 -35.5 -16t-31.5 -19v-1zM122 708q90 60 108 68l1 1l2 1h-2h-2q-19 -8 -60.5 -35t-46.5 -35zM754 661q5 3 5 8zM683 649q7 4 11 16q-11 -6 -11 -16zM852 655q5 3 5 10q-6 -5 -5 -10zM819 644q5 1 5 10q-7 -3 -5 -10zM743 644q4 4 4 9q-1 -2 -2 -5t-2 -4zM835 626
q1 0 2 1l2 1q12 19 12 25q-5 -2 -8 -5.5t-5.5 -10t-3.5 -8.5v-1zM562 440q5 1 10 14q47 97 101 178q5 6 8 16q-8 -5 -9 -7q-48 -59 -74 -111q-27 -49 -36 -90zM806 617q10 9 12 25q-12 -9 -12 -25zM731 627q3 2 5 9q-3 -3 -5 -9zM719 611q8 2 10 15q-8 -4 -10 -15zM487 333
h2l3 8q17 58 34 101q39 91 75 147q12 20 13 26q-1 -1 -4.5 -3.5t-4.5 -4.5q-87 -118 -116 -250q-3 -11 -3 -22zM804 610q0 1 0.5 2.5t0.5 2.5l-2 -3l1 -1v-1zM634 451q49 88 81 149l3 9q-1 -1 -4 -2.5t-4 -3.5q-43 -63 -71 -129q-6 -16 -5 -23zM559 428l1 4q2 4 2 6
q0 -1 -2 -3t-2 -3q-1 -1 0 -3zM1109 411h1l-1 2v-2zM1102 394l1 2h-1v-2zM1088 364l2 2v2zM1085 356q0 1 0.5 2.5t0.5 2.5l-2 -3q1 -1 1 -2zM481 310l1 3h-1v-3z" />
    <glyph glyph-name="P" unicode="P" horiz-adv-x="1254" 
d="M379 -15q-81 0 -144.5 70t-65.5 160q0 40 7 71q21 96 93.5 148.5t145.5 52.5q75 0 77 -48q0 -3 -2.5 -6t-4.5 -4t-7 -3t-6 -3q-24 -11 -55 -35q-3 -4 -11 -12q-40 -44 -64 -106t-22 -118q0 -40 13.5 -74.5t41.5 -36.5q1 0 3 -1h1q13 0 32 17q48 44 161 242q34 60 51 91
q83 150 128 234q65 123 88 173l3 8q1 0 1 1q-76 4 -135.5 5t-133 -3.5t-130 -16t-116 -34.5t-102.5 -57t-77.5 -86t-51.5 -118q-9 -32 -40 -24q-33 9 -49 48q-30 71 41 153q26 29 64 57q57 42 127 71.5t130 43t137 19.5t125 5.5t118 -2.5t94 -2h11q29 1 55 11q30 13 45 13
q25 0 43 -8.5t24 -18.5t0 -16t-10 -8q-12 -6 -20.5 -13t-14 -13.5t-13 -20.5t-12 -24.5t-16 -36t-20.5 -45.5q-18 -40 -22 -48q0 -1 -2 -5q-1 -1 -3 -5q32 52 76.5 107.5t104 105t102.5 49.5q57 0 104 -43t47 -120q0 -68 -38 -148t-95 -145t-127.5 -108.5t-131.5 -43.5
q-59 0 -104 31.5t-65 63.5q-80 -154 -132 -229q-16 -23 -33 -42q-64 -78 -137 -104q-31 -10 -56 -14q-16 -2 -25 -2zM893 359q33 0 83 38.5t99 99t87 145.5t45 166q0 19 -11 19q-47 0 -114.5 -60.5t-122.5 -137t-95 -144t-40 -85.5q0 -41 69 -41zM866 799h1l2 2v1h-3v-3z
M305 792v1h-2zM241 785q1 1 2 1q2 0 2 1h-2zM859 774q1 1 1 2q1 1 1 2l1 1l1 3l-1 1q-1 1 -1 2l-2 -2v-9zM212 746q0 1 1 1q1 -1 16 7t31 17t17 11q-2 0 -18.5 -8t-32 -16.5t-14.5 -10.5v-1zM117 708q94 63 106 68l1 1l2 1h-2h-2q-19 -8 -59.5 -34.5t-45.5 -35.5zM464 78
l8 6q100 84 342 587l1 2v1l9 19h1q9 18 30 63v1q0 1 3 14v1q0 -1 -1 -2q-28 -50 -86 -158q-6 -11 -13 -23q-2 -5 -5 -10l-38 -70q-63 -120 -111 -207l-14 -28h-1l-9 -16q-6 -12 -18 -34q-2 -3 -6 -11q-4 -6 -8 -13q-53 -93 -84 -122zM868 730l2 2l1 1q0 1 -1 3q-1 0 -1 -2
q-1 -1 -1 -4zM1219 729h2l-1 2zM862 719q5 1 5 10q-5 -4 -5 -10zM538 116q63 96 111 179t71.5 128.5t60 121t58.5 118.5l5 8q0 1 1 2v2q7 11 9 17v1h1v1q6 16 7 19v4q-5 -5 -36 -67l-14 -26l-3 -6l-14 -27q-191 -373 -257 -475zM1116 504q17 2 58.5 92t41.5 116v3
q-3 0 -7 -14q-51 -131 -88 -183q-3 -4 -5 -14zM890 678l1 1v2l-1 -1v-2zM883 660q0 1 1 2l1 1q0 1 -0.5 1t-0.5 1l-1 -4v-1zM634 191q53 83 124 223q8 49 64 125q0 1 1 2l26 52l11 21q3 7 7 14v1q1 1 1 3l2 2q0 1 1 2v1q1 1 3 5l3 7q0 1 1 3q1 1 1 2l2 3q-1 0 -6 -8.5
t-12 -22t-11 -19.5q0 -1 -1 -2q-1 -5 -4 -7v-2h-1l-4 -7q0 -1 -2 -3v-1l-1 -1q-95 -160 -205 -393zM1214 612q3 2 3 8zM1209 602q4 0 4 6v3q-4 -2 -4 -9zM1204 590q5 1 5 7q0 1 -1 3q-4 -1 -4 -6v-4zM1132 477h2q3 0 3 4v1q18 9 42.5 51.5t24.5 51.5v4q-6 -4 -9 -8.5
t-53 -86.5q-2 -2 -3 -6.5t-2 -5.5q-5 0 -5 -5zM1257 581l3 8q-3 -2 -3 -8zM1252 569q2 3 4 9q-4 -1 -4 -5v-4zM1242 553q3 1 5 3t3 6t2 5q-8 -2 -10 -14zM1238 542q4 1 4 6v4q-5 -3 -5 -7q0 -1 1 -3zM1228 526q8 2 10 14q-10 -2 -10 -14zM1191 466q11 10 24 30.5t13 24.5v4
q-4 -1 -6.5 -4.5t-30.5 -47.5v-7zM1111 499q4 0 4 4q-1 -3 -4 -4zM1101 488q3 1 4 4zM1128 472h1q3 0 3 3v1zM1123 466q4 0 4 4v1q-1 -1 -2 -2.5t-2 -2.5zM1118 462q4 0 4 3q-2 -1 -4 -3zM314 353q19 16 47 54q1 1 1 4q-24 -15 -43 -44q-2 -2 -3 -7.5t-2 -6.5zM320 407l4 4
q-4 0 -4 -4zM312 402q4 2 6 4h-1q-3 0 -5 -4zM251 310l3 3q31 49 54 78l3 9q-18 -10 -35 -37.5t-25 -52.5zM389 374q12 4 13 16q-12 -8 -13 -16zM375 358q11 3 13 15q-9 -3 -13 -15zM368 347q5 5 5 9q-1 -3 -5 -9zM310 345l1 2l2 4q-4 0 -4 -3q1 -2 1 -3zM248 302l1 5l-2 -3
q0 -2 1 -2z" />
    <glyph glyph-name="Q" unicode="Q" horiz-adv-x="1238" 
d="M714 -24q-43 0 -86 18t-81 52.5t-60.5 95.5t-20.5 138q5 150 95 297.5t222 231.5h-6q-97 4 -175 0.5t-164.5 -21.5t-149.5 -51.5t-115.5 -94.5t-77.5 -146q-10 -33 -42 -23.5t-47 48.5q-26 71 49 153q26 28 64 56q58 42 129 71.5t131.5 43t138 19.5t125.5 5.5t118 -2.5
t94 -2h11q25 2 35 5q102 26 176 1.5t81 -58.5q3 -14 -0.5 -16t-13.5 4q-9 4 -14.5 6.5t-18 5t-24.5 2.5q-71 0 -143.5 -46.5t-128.5 -119.5t-101 -157.5t-70 -164.5t-27 -137q-2 -63 17 -103t46 -40q63 0 140.5 45t143 114.5t111.5 161.5t49 177q2 48 -9 101t-39 55
q-58 0 -101 -71t-46 -150q0 -36 4 -51v-11q0 -4 -3.5 -7.5t-6.5 -3.5q-34 0 -61 32.5t-25 83.5q4 102 113 188l16 10q29 17 37 20q20 7 43 7q25 0 46 -10q48 -23 76 -83t26 -130q-3 -96 -51 -197t-117.5 -177.5t-154 -125.5t-157.5 -49zM313 792v1h-2zM249 785q1 1 2 1t2 1
h-2zM219 746q0 1 1 1q1 -1 16.5 7t31.5 17t17 11q-2 0 -18.5 -8t-32.5 -16.5t-15 -10.5v-1zM122 708q91 61 109 68l1 1l2 1h-2h-2q-19 -8 -60.5 -34.5t-47.5 -35.5zM505 328q2 3 16 46.5t32.5 92t56.5 113.5t84 115v1q1 2 3 4q-1 0 -4 -3v-1l-2 -2q-1 0 -3 -3
q-80 -84 -134 -194t-49 -169zM570 398q3 10 12 30t54.5 94.5t110.5 164.5q-11 2 -53 -53.5t-81.5 -127.5t-42.5 -108zM756 683l5 5q-5 -2 -5 -5zM606 370q34 55 68 122q40 79 101 159q-42 -45 -93 -121t-69 -131q-2 -7 -7 -29zM912 615q4 3 4 7v3q-4 -3 -4 -8v-2zM879 604
q1 0 1 0.5t1 0.5q1 1 1.5 3.5t0.5 3.5v2q-5 -3 -5 -8q0 -1 1 -2zM895 586l2 1q1 0 1 1q13 21 13 26q-7 -3 -17 -25v-1q1 -1 1 -2zM866 578q10 8 12 25q-12 -9 -12 -25zM863 570q0 3 2 5l-3 -3v-1zM1129 462v3l-1 -2zM1123 440q0 1 1 2h-1l-1 -1zM1117 423q0 1 1 1q0 1 -1 2
v-3zM567 390l1 4l-2 -2zM1100 381q0 1 1 1l1 2l-1 1l-1 -1v-3zM1117 376l2 2q0 1 -1 2zM1111 364q3 1 3 7zM1106 352q3 2 3 8zM1099 341q5 2 5 7q0 -1 -2 -3t-3 -4zM1095 329q3 3 3 9zM766 -211q-134 -20 -235 42.5t-98 141.5q0 4 3.5 7t7.5 1q18 -18 20 -23q14 -32 62 -47
q46 -14 114 -12q31 1 126 15q66 9 134 15q69 7 142 -14q51 -15 88 -56q17 -22 12 -45q-1 -3 -4 -6t-6 -2q-10 2 -16 4q-28 10 -42 14q-52 14 -124 1q-15 -3 -45 -9.5t-45 -9.5q-70 -13 -94 -17z" />
    <glyph glyph-name="R" unicode="R" horiz-adv-x="1237" 
d="M971 -30q-104 0 -157 102q-15 31 -24.5 65.5t-12 54t-5 60.5t-3.5 50q-4 38 -16 53l-1 2q-72 -138 -122 -210q-16 -23 -33 -42q-64 -78 -137 -104q-31 -10 -56 -14q-16 -2 -25 -2q-81 0 -144.5 70t-65.5 160q0 40 7 71q21 96 93.5 148.5t145.5 52.5q75 0 77 -48
q0 -3 -2.5 -6t-4.5 -4t-7 -3t-6 -3q-24 -11 -55 -35q-3 -4 -11 -12q-40 -44 -64 -106t-22 -118q0 -40 13.5 -74.5t41.5 -36.5q1 0 3 -1h1q13 0 32 17q48 44 161 242q34 60 51 91q83 150 128 234q65 123 88 173l3 8q1 0 1 1q-76 4 -135.5 5t-133 -3.5t-130 -16t-116 -34.5
t-102.5 -57t-77.5 -86t-51.5 -118q-9 -32 -40 -24q-33 9 -49 48q-30 71 41 153q26 29 64 57q57 42 127 71.5t130 43t137 19.5t125 5.5t118 -2.5t94 -2h11q29 1 55 11q30 13 45 13q25 0 43 -8.5t24 -18.5t0 -16t-10 -8q-12 -6 -20.5 -13t-14 -13.5t-13 -20.5t-12 -24.5
t-16 -36t-20.5 -45.5q-18 -40 -22 -48q0 -1 -2 -5l-6 -12t-5 -11l-22 -43q4 2 8 10q10 13 29 38.5t29 37.5q72 95 156 170l48 45q30 35 90 17q52 -16 82 -76q18 -38 14 -75q-5 -48 -22 -90q-28 -72 -83 -138q-70 -83 -166 -118q-45 -17 -119 -22h-14q-7 -2 -5 -8
q1 -4 4 -13.5t4 -14.5q8 -31 12 -79q1 -16 2 -42t1.5 -45.5t2.5 -44t5.5 -41.5t9 -32t14.5 -23t21 -8q16 0 35 9t28 9q19 0 19 -13q0 -17 -32 -33t-61 -16zM869 453q28 5 29 6q38 14 83 59q28 27 66 80q5 6 13.5 17.5t15.5 21t13 18.5q22 31 38 57q26 46 39 70q1 3 2.5 6.5
t3 8l2.5 7.5l-8 2q-10 -4 -14 -7q-5 -4 -26 -22t-31 -28q-57 -53 -151 -183l-73 -102q-1 -1 -4 -7zM866 799h1l2 2v1h-3v-3zM305 792v1h-2zM241 785q1 1 2 1q2 0 2 1h-2zM859 774q1 1 1 2q1 1 1 2l1 1l1 3l-1 1q-1 1 -1 2l-2 -2v-9zM212 746q0 1 1 1q1 -1 16 7t31 17t17 11
q-2 0 -18.5 -8t-32 -16.5t-14.5 -10.5v-1zM117 708q94 63 106 68l1 1l2 1h-2h-2q-19 -8 -59.5 -34.5t-45.5 -35.5zM1031 521q3 0 4 1q10 8 14 13q73 79 128 174q18 32 24 58q0 2 0.5 4.5t0.5 3.5q-2 2 -2 3l-4 -3q-16 -34 -25 -50q-61 -106 -128 -187l-11 -12q-1 -1 -1 -5z
M464 78l8 6q100 84 342 587l1 2v1l9 19h1q9 18 30 63v1q0 1 3 14v1q0 -1 -1 -2q-28 -50 -86 -158q-6 -11 -13 -23q-2 -5 -5 -10l-38 -70q-63 -120 -111 -207l-14 -28h-1l-9 -16q-6 -12 -18 -34q-2 -3 -6 -11q-4 -6 -8 -13q-53 -93 -84 -122zM868 730l2 2l1 1q0 1 -1 3
q-1 0 -1 -2q-1 -1 -1 -4zM862 719q5 1 5 10q-5 -4 -5 -10zM538 116q63 96 111 179t71.5 128.5t60 121t58.5 118.5l5 8q0 1 1 2v2q7 11 9 17v1h1v1q6 16 7 19v4q-5 -5 -36 -67l-14 -26l-3 -6l-14 -27q-191 -373 -257 -475zM1080 515q10 5 11 6q38 35 68 77q29 37 53 93
q6 14 5 20q-10 -12 -14 -19q-6 -9 -21 -33t-23 -36q-12 -17 -34.5 -47t-30.5 -41l-9 -11zM890 678l1 1v2l-1 -1v-2zM883 660q0 1 1 2l1 1q0 1 -0.5 1t-0.5 1l-1 -4v-1zM634 191q57 89 189 350l26 52l11 21q3 7 7 14v1q1 1 1 3l2 2q0 1 1 2v1q1 1 3 5l3 7q0 1 1 3q1 1 1 2
l2 3q-1 0 -6 -8.5t-12 -22t-11 -19.5q0 -1 -1 -2q-1 -5 -4 -7v-2h-1l-4 -7q0 -1 -2 -3v-1l-1 -1q-95 -160 -205 -393zM1255 633q2 2 2 3v2q-2 0 -3 -1q0 -3 1 -4zM1179 519q2 2 7 5.5t8.5 6.5t5.5 6q6 8 42 65q1 3 12 29q-6 -2 -8 -4q-5 -8 -28.5 -43t-35.5 -54q0 -1 -3 -11
zM1174 513l4 4q-4 0 -4 -4zM314 353q19 16 47 54q1 1 1 4q-24 -15 -43 -44q-2 -2 -3 -7.5t-2 -6.5zM320 407l4 4q-4 0 -4 -4zM312 402q4 2 6 4h-1q-3 0 -5 -4zM251 310l3 3q31 49 54 78l3 9q-18 -10 -35 -37.5t-25 -52.5zM389 374q12 4 13 16q-12 -8 -13 -16zM375 358
q11 3 13 15q-9 -3 -13 -15zM368 347q5 5 5 9q-1 -3 -5 -9zM310 345l1 2l2 4q-4 0 -4 -3q1 -2 1 -3zM871 46v5q-23 72 -38.5 146t-19.5 112l-4 38q-12 -15 8 -139t50 -161q1 0 3 -1h1zM895 97l-41 236q-6 -43 11 -132.5t30 -103.5zM248 302l1 5l-2 -3q0 -2 1 -2z" />
    <glyph glyph-name="S" unicode="S" horiz-adv-x="877" 
d="M425 -35q-100 0 -164.5 71t-58.5 179q0 8 2 26q10 69 52.5 122t91 76.5t91.5 23.5q31 0 46 -12t14 -28q0 -5 -18 -16q-28 -17 -50 -41q-77 -88 -84 -203q-3 -61 18.5 -102t60.5 -41q64 0 103.5 64.5t44.5 154.5q4 77 -11 152.5t-30.5 137.5t-13.5 105q6 103 69 175
q-91 -5 -164.5 -22t-141.5 -51.5t-115.5 -95t-69.5 -144.5q-9 -32 -40 -24q-33 9 -49 48q-30 71 41 153q26 29 64 57q144 108 373 132q60 7 124 7q42 1 85 12.5t75 11.5q82 0 127 -58.5t40 -145.5q-7 -106 -68 -163q-23 -21 -47.5 -30t-44.5 -5.5t-36.5 12t-25.5 20.5t-9 23
q2 6 4 7q54 46 87 109.5t35 116.5q4 78 -72 78q-47 0 -85.5 -39t-42.5 -116q-3 -67 21 -144t50.5 -152.5t27.5 -131.5q2 -154 -86 -231.5t-220 -77.5zM305 792v1h-2zM241 785q1 1 2 1q2 0 2 1h-2zM212 746q0 1 1 1q1 -1 16 7t31 17t17 11q-2 0 -18.5 -8t-32 -16.5
t-14.5 -10.5v-1zM117 708q94 63 106 68l1 1l2 1h-2h-2q-19 -8 -59.5 -34.5t-45.5 -35.5zM605 772q2 0 2 2q0 1 -1 1q0 -2 -1 -3zM599 760q2 3 4 9q-4 -2 -4 -8v-1zM588 735q9 7 11 23q-13 -8 -11 -23zM550 686l2 2q3 10 9.5 30t9.5 30q-19 -29 -21 -62zM584 722l3 3v8
q0 -1 -2 -4l-2 -3l1 -2v-2zM841 700q4 4 4 10q-1 1 -1 3l-1 2q-1 0 -1 -1q-1 -5 -1 -14zM579 707q0 1 0.5 1t0.5 1v2l-1 -2v-2zM801 603l4 3q24 35 36 85v8q-5 -3 -41 -92q0 -3 1 -4zM546 661q2 3 3 24q-4 -4 -4 -20q0 -1 1 -3v-1zM859 655l1 3v2q-1 -2 -1 -5zM829 594
q1 1 3 2t3.5 2t2.5 2q19 25 19 52q-18 -28 -28 -58zM879 576q1 0 2 1t2 1q13 17 12 31v1q-4 -4 -17 -32zM333 321q9 9 42 57q1 2 1 5q-21 -16 -39 -48q-2 -4 -4 -14zM335 374l4 4q-3 -1 -4 -4zM328 368q2 1 5 4q-3 0 -5 -4zM275 272l3 3q22 43 46 82q3 3 3 9
q-17 -12 -31.5 -40.5t-20.5 -53.5zM404 350q11 6 11 16q-10 -8 -11 -16zM391 333q10 4 12 16q-6 -3 -12 -16zM386 322q4 4 4 9q0 -2 -2 -5t-2 -4zM330 313l1 2q1 2 1 4q-3 0 -3 -3q0 -2 1 -3zM612 109q10 7 17 24.5t10 40.5t4 41.5t1 38.5l1 20q0 1 -4 1l-1 -1
q-1 -5 -2 -25.5t-6 -52.5t-18 -71q-4 -11 -2 -16zM272 264l2 6q-3 -3 -3 -4q1 -1 1 -2zM684 122q5 2 5 4q11 20 16 44t1 34q-9 -14 -22 -82zM643 107q13 7 24 43t5 52q-15 -24 -29 -95z" />
    <glyph glyph-name="T" unicode="T" horiz-adv-x="705" 
d="M210 -15q-82 0 -145 70t-65 160q0 40 7 71q21 96 93.5 148.5t145.5 52.5q34 0 55 -12.5t21 -35.5q0 -3 -1 -5t-3 -3.5t-4 -2.5t-5.5 -2.5t-5.5 -2.5q-28 -12 -55 -35l-11 -12q-41 -44 -64.5 -105.5t-22.5 -118.5q1 -40 14.5 -74.5t41.5 -36.5l4 -1q14 0 31 17
q51 45 161 242h1q21 39 51 91q87 157 127 234q62 114 89 173q0 1 1 2q-55 0 -82 -1q-246 -8 -330 -169q-12 -23 -38 -16q-6 2 -15 12t-16 27t-11 38t2 45t20.5 47t46.5 45.5t79 39.5q88 31 185.5 36t173.5 -7t187 -26t199 -14q39 0 91 7.5t76 23.5q8 5 19 -12
q20 -33 -12 -60q-60 -53 -281 -42q-126 14 -187 19q0 -2 -0.5 -5.5t-0.5 -5.5q-6 -30 -21 -70q-5 -14 -10 -26q-12 -30 -21 -48l-2 -5q-4 -7 -12 -23q-31 -63 -82 -161q-10 -20 -15 -29q0 -2 -2 -5t-2 -4q-90 -178 -150 -263q-23 -31 -32 -42q-65 -78 -138 -104
q-27 -10 -55 -14q-16 -2 -25 -2zM1229 868h3l3 3q-1 -1 -2 -1h-2zM401 864h8l2 2l-2 1zM1212 863q1 0 2.5 0.5t2.5 0.5q-2 0 -2 1q-3 0 -5 -1zM251 792l7 3q9 5 31.5 18t35.5 19t36 14.5t30 11.5q7 2 7 5h-7q-52 -14 -97 -36q-7 -4 -20 -12.5t-14 -9.5l-4 -4zM1188 858h10
q1 1 0 1l-1 2zM1177 853q2 1 4 2.5t3 1.5q-6 0 -9 -1q-1 0 -2 -1zM1156 848q1 0 5 2q-4 2 -5 2q-2 0 -4 -2l2 -1zM463 846h3q-1 1 -3 1v-1zM1133 845h4v1q-2 1 -5 1q0 -2 1 -2zM432 840h9h1l2 1l-2 2l-2 1q-4 -1 -8 -4zM1206 840q2 2 3 2q-3 2 -4 1q-1 0 -3 -2q1 -1 4 -1z
M309 791q5 0 7 1q64 30 111 45l3 3h-7q-60 -11 -109 -41q-1 -1 -2.5 -4t-2.5 -4zM1185 836q12 -2 15 4q-12 0 -15 -4zM1163 832q17 -2 21 3q-15 2 -21 -3zM1150 827q8 -2 11 4q-8 0 -12 -1q-1 0 -3 -2zM1122 823l1 1h2q-1 0 -2.5 0.5t-2.5 0.5h-2q0 -1 2 -1t2 -1zM1194 804
q2 0 3 1l-2 1h-1l-2 -1l1 -1h1zM1178 800v1h-3zM456 797q0 1 -0.5 1t-0.5 1l-1 -1h1zM438 791q1 2 1 3t-2 1l-8 -3q3 -1 9 -1zM401 781q15 0 25 10q-16 0 -25 -10zM690 774q1 1 1 2l1 1v1l1 1l1 3l-3 3l-1 -2v-9zM367 766q24 6 32 15q-12 2 -31 -11v-2q0 -1 -1 -2zM294 78
q4 2 8 6q33 28 85 107.5t106.5 182.5t88.5 170.5t63 126.5q0 2 1 2v1l9 19q19 37 30 63l1 1l3 14v1l-1 -1v-1q-63 -114 -86 -158q-8 -12 -13 -23q-3 -5 -5 -10l-38 -70q-12 -22 -52 -97.5t-59 -109.5q-5 -10 -15 -28l-9 -16q-10 -19 -19 -34q-2 -3 -6 -11l-7 -13
q-57 -97 -85 -122zM356 762q4 2 10 4q-7 0 -10 -4zM699 730l2 2l1 1q0 1 -2 3q0 -1 -1 -2v-4zM693 719q5 1 5 10q-5 -4 -5 -10zM369 116q63 96 111 179t71.5 128.5t60 121t58.5 118.5q3 4 4 8q1 1 1 2q1 0 1 2q2 3 5 8.5t4 8.5v2q6 10 8 19v1q0 2 -1 3q-3 -3 -35 -67
q-3 -5 -7.5 -14t-6.5 -12l-3 -6l-14 -27q-201 -385 -257 -475zM721 678l1 1v2l-1 -1v-2zM714 660q0 1 1 2l1 1h-1v2l-1 -4v-1zM464 191q63 98 189 350q9 16 27 52l4.5 9t5.5 12q4 7 7 14h1v1q1 1 1 3l1 2l2 2v1q0 1 2 5l4 7v1l1 2l1 1v1l2 3q-3 -2 -29 -50q0 -1 -0.5 -1
t-0.5 -1q-1 -1 -2 -4l-2 -3v-1l-1 -1l-4 -7l-2 -3v-1q-1 0 -1 -1q-95 -160 -206 -393zM284 639q0 1 1 2l-1 -1v-1zM359 634l1 1q0 -1 -1 -1zM145 353q15 13 47 54q1 1 1 4q-23 -13 -43 -44q-3 -4 -5 -14zM150 407q2 1 5 4q-3 0 -5 -4zM143 402q4 2 5 4q-3 0 -5 -4zM82 310
l3 3q27 45 53 78q2 1 4 9q-19 -10 -35.5 -37.5t-24.5 -52.5zM220 374q12 5 12 16q-11 -7 -12 -16zM205 358q10 2 14 15q-8 -2 -14 -15zM199 347q5 5 5 9zM141 345l1 2l2 4q-4 0 -4 -3q0 -2 1 -3zM78 302q1 1 2 5q-3 -2 -3 -3z" />
    <glyph glyph-name="U" unicode="U" horiz-adv-x="1344" 
d="M1443 817q7 -19 -14 -86l-1 -1q-10 -31 -29 -72q-1 -2 -2.5 -4t-1.5 -3l-6 -14h-1l-6 -13q-4 -8 -6 -11l-4 -8q-75 -142 -82 -154q-1 -1 -3 -5l-5 -8l-11 -21l-7 -12l-11 -21v-1q-2 -3 -6 -11t-6 -11l-5 -9q-3 -7 -7 -14q-2 -5 -5 -10q-49 -102 -73 -208
q-15 -62 -16 -111q-5 -143 82 -182q3 -1 3 -4q0 -6 -14.5 -13.5t-28.5 -7.5q-60 0 -104 55t-56 146.5t19 209.5q-174 -236 -265 -236q-32 0 -63.5 13.5t-58 42.5t-33.5 75t9 110q21 73 73.5 170t116 201t89.5 158q0 19 -2 28q-5 24 -28 27h-8q-27 -1 -84 0.5t-104.5 3
t-113 -2.5t-119 -13t-112 -31t-102 -55t-80 -86t-54.5 -122q-9 -32 -40 -24q-33 9 -49 48q-30 71 41 153q26 29 64 57q57 42 127 71.5t130 43t137 19.5t125 5.5t118 -2.5t94 -2h11q29 1 55 11q55 23 86 0t34 -59l1 -9q0 -28 -15 -77v-1q-12 -37 -40 -93q-67 -131 -98 -186
q-50 -83 -95.5 -186t-45.5 -165q0 -74 45 -69q71 8 212 194q73 98 155 233q0 1 1.5 3t2.5 4q4 7 8 13l37 63q3 5 13 21.5t16 25.5l5 9q6 10 9 14q1 3 5 9l14 24q18 30 26 45l3 6l4 8q1 1 2.5 4t2.5 4q0 1 3 6l28 57q24 51 25 77q0 14 -3 29q-1 4 2 7t8 3q32 1 56 -20.5
t26 -52.5zM952 806l-2 -5l1 -2l2 2q0 3 -1 5zM1363 801v-2h1l2 2v2q-1 2 -1 3q-2 -4 -2 -5zM305 792v1h-2zM243 787l-2 -2q1 1 2 1q2 0 2 1h-2zM945 785q-1 -2 -2 -11l4 6v2l-1 1zM1356 783v-9q0 1 1 2l1 1v1l1 2l1 1v1l-3 3zM213 747q1 -1 16 7t31 17t17 11q-2 0 -18.5 -8
t-32 -16.5t-14.5 -10.5v-1q0 1 1 1zM117 708q94 63 106 68l1 1l2 1h-2h-2q-19 -8 -59.5 -34.5t-45.5 -35.5zM660 226q0 2 2 2q0 2 1 3q0 1 8 22t22 53t33 68q4 7 8 14.5t8.5 16.5t7.5 14l1 1q51 90 99 173t60 105l9 17l7 16q8 16 12 25l1 1q1 2 1.5 4.5t1 5.5t0.5 5
q-1 -1 -2 -1q-2 -1 -8 -13q-1 -2 -10.5 -20t-15.5 -29l-14 -29h-1l-36 -64l-10 -17q-60 -100 -125 -217l-14 -28q-19 -36 -35 -80l-13 -43q0 -1 2 -5zM1117 332l2 3q5 11 11 22l8 17q8 14 24 44q1 0 1 1v1l66 116q14 24 33.5 57t24.5 42q1 5 4 7l19 34l3 4q9 18 25 48l6 13
q0 1 1 1l6 14v1q2 3 4 15q-4 -1 -5.5 -3t-3 -6t-2.5 -5l-20 -39q0 -1 -1 -2l-6 -11q-1 -3 -5 -10t-5 -11l-3 -5q0 -1 -1 -1q-1 -3 -13 -24l-1 -1l-4 -8t-5 -9t-5 -8l-7 -12l-1 -1l-2 -4l-2 -4q-2 -2 -3 -4q-1 -1 -3 -5q-1 -2 -5 -9t-6 -10q-6 -10 -9 -16l-34 -57l-28 -51
q-13 -19 -21 -37l-2 -2l-2 -4l-5 -9q-1 -1 -3 -5l-7 -12q-2 -4 -2 -5h-1l-14 -28l-6 -12l-3.5 -7t-3.5 -8l-5 -11l-6 -15q-2 -4 -2 -5l-3 -7q0 -1 -1 -3q-1 -4 -4 -10.5t-4 -9.5v-3q-9 -23 -9 -32q0 -1 0.5 -2.5t0.5 -2.5l2 2v1q1 1 1 2l2 4v1q2 2 2 5q2 3 4 10t4 11l19 46
q4 5 5 11q4 5 5 11q1 0 1 2zM954 732v1v1l-1 2q-1 -1 -1 -2v-4zM1367 733q0 1 -2 3v-2q-1 -1 -1 -4l2 2zM950 729q-5 -4 -5 -10q5 1 5 10zM1363 729q-5 -4 -5 -10q5 1 5 10zM716 288q0 1 5 11t6 11l25 46v1l5 9q1 1 1 2q1 1 6.5 12t9.5 17q0 1 0.5 1t0.5 1q1 1 2.5 4
t2.5 5.5t2 4.5q2 3 4 7q1 0 1 1t1 1q40 73 77 138.5t72 131.5v1q9 17 8 24q-7 -8 -74 -127q-69 -121 -130 -238q-24 -42 -25 -64zM1186 397q1 1 1 2q2 2 4.5 7l3.5 7q0 1 1.5 3t2.5 4v1l1 1q1 2 7.5 13.5t9.5 17.5l7 13l1 1q21 38 51 91q6 12 10 17q18 35 33 60v1
q20 34 30 56v1q8 16 8 20v4q-5 -5 -6 -8l-68 -119q-23 -39 -42 -75l-9 -17q-6 -10 -9 -16q-6 -10 -16.5 -30t-16.5 -30q0 -1 -1 -2q-1 -2 -8 -15l-3 -6v-1l-1 -2q-4 -6 -10 -18l-2 -3l-3 -6l-4 -8t-4 -7l-1 -2q0 -1 -2 -5q-1 -1 -1 -2l-2 -4t-1.5 -3.5t-2 -4t-2.5 -4.5
q-1 -3 -5 -11l-1 -2v-2v-1l-1 -1l-1 -1v-2q-1 -1 -1 -3q-3 -8 -5 -15v-3l8 15l3 7q1 1 2.5 4t2.5 4q1 4 4 8q1 1 1 2l7 13l8 15v1q4 6 5 9q1 0 1 2q15 27 16 29zM973 681l-1 -1q0 -2 1 -2q0 1 1 1zM1386 679v2l-1 -1v-2zM966 665l-1 -5l2 3q-1 1 -1 2zM1379 663v2l-2 -5z
M963 657q-3 -1 -64.5 -113.5t-64.5 -118.5l-17 -32v-1l-4 -7l-12 -25l-1 -2l-1 -2l-1 -2v-1q-1 -1 -1 -2q-2 -3 -4 -9q-2 -2 -2 -4l-2 -4l-2 -5q-4 -8 -4 -13q5 7 18 32.5t14 29.5q4 4 67.5 123.5t80.5 155.5zM1373 652q2 4 2 5q-2 -1 -33 -57.5t-63.5 -115t-32.5 -59.5v-1
q-2 -3 -17 -31v-1l-3 -7l-13 -25q0 -2 -1 -2l-1 -4l-2 -3q-1 -1 -2 -4t-2 -5q-1 0 -1 -2t-1 -2l-1 -2v-2q-1 0 -1 -2l-2 -3q0 -2 -1 -3v-1q-1 -1 -1 -2t-1 -3v-1q0 -1 -0.5 -1t-0.5 -1v-1l3 4l2 3l1 2q0 1 1 2q0 1 0.5 1t0.5 1q10 18 20 39q0 1 1 1v1l1 2q0 1 1 1
q0 1 0.5 2.5t1.5 2.5v1q8 14 14 26l2 3q7 12 7 13l28 52.5t30 56.5l7 12l26 51l6 11q3 5 5 10q4 7 7 14h1l3 6q3 8 6 12zM774 298q0 3 1 4l-2 -2zM1186 298q1 1 1 4l-1 -1v-1v-2zM713 281q1 1 1 5l-2 -2zM1126 283q1 1 1 3q-2 0 -2 -2t1 -3v2zM1180 281v3l-1 -1v-1h-1v-1
l1 -1q0 1 1 1z" />
    <glyph glyph-name="V" unicode="V" horiz-adv-x="1264" 
d="M788 -28q-17 0 -30 10q-58 47 -58 137q0 22 2.5 43t10 49t14 49t22.5 62.5t27.5 69t36.5 88.5t42 102l8 20q8 20 13.5 35t13.5 40t11 44t3.5 38t-7.5 30t-23 13h-8q-27 -1 -84 0.5t-104.5 3t-113 -2.5t-119 -13t-112 -31t-102 -55t-80 -86t-54.5 -122q-9 -32 -40 -24
q-33 9 -49 48q-30 71 41 153q26 29 64 57q57 42 127 71.5t130 43t137 19.5t125 5.5t118 -2.5t94 -2h11q24 1 42.5 7t40.5 6q13 0 19 -2q38 -10 62 -50.5t24 -90.5q0 -58 -34.5 -160.5t-76.5 -196t-76.5 -194t-34.5 -154.5q0 -6 5 -6q21 0 67.5 64t102 160t125.5 208.5
t136 208.5t135.5 160t121.5 64q11 0 17 -2q11 -4 29 -20q4 -4 4 -11q0 -5 -2 -9q-3 -5 -6.5 -6.5t-10.5 -2t-14 -2.5q-38 -13 -80 -49t-77.5 -78.5t-80.5 -108t-77 -117t-79 -128.5t-75 -121q-9 -14 -33.5 -52.5t-33 -51.5t-29.5 -42.5t-32 -40.5t-31 -30t-35.5 -26
t-36.5 -13t-43 -6zM305 792v1h-2zM241 785q1 1 2 1q2 0 2 1h-2zM212 746q0 1 1 1q1 -1 16 7t31 17t17 11q-2 0 -18.5 -8t-32 -16.5t-14.5 -10.5v-1zM117 708q94 63 106 68l1 1l2 1h-2h-2q-19 -8 -59.5 -34.5t-45.5 -35.5zM731 120l1 1v2t1 4t1 5q11 67 31 125q33 98 143 360
q16 39 29 102v6l-1 1h-1q-6 -13 -12.5 -38.5t-24.5 -68.5q-27 -67 -56.5 -139.5t-41 -100.5t-24.5 -61t-17 -48t-8.5 -31.5t-9.5 -40.5q-2 -7 -5 -23t-5 -22q-1 -14 -1 -29q0 -2 1 -4zM784 216q0 1 1.5 2.5t1.5 2.5q16 45 36.5 96t45.5 111.5t39 94.5l33 83q3 8 13 41
q0 1 -0.5 4.5t-1.5 4.5q0 -1 -1.5 -3t-2.5 -4q-2 -4 -2 -5q-123 -300 -151 -377q-3 -9 -7 -26.5t-5 -19.5l1 -2v-3zM995 609q1 0 1 1q1 1 1 5l-2 -1v-5zM985 581q5 4 5 11v1l-1 1q-2 0 -2 -1q-1 -2 -1 -6t-1 -6zM830 189l3 3l9 22q26 68 131 325q13 28 11 41q-3 -1 -5 -4
t-3 -6.5t-2 -5.5q-35 -84 -53.5 -128t-33 -80t-18 -45.5t-15.5 -44t-20 -55.5q-1 -3 -2.5 -8.5t-2.5 -8.5q0 -1 1 -3v-2z" />
    <glyph glyph-name="W" unicode="W" horiz-adv-x="1639" 
d="M1174 -36q-39 0 -76.5 32.5t-40.5 65.5q-1 6 -1 19t4 38t8 43l5 19q0 3 -2 9q-6 -4 -8 -6q-41 -51 -47 -58q-60 -68 -85.5 -92t-51.5 -39q-25 -15 -50 -15q-13 0 -33.5 9t-43.5 26t-38 50t-13 74q1 24 6.5 51t12.5 50t23 65t27.5 71t39 95t45.5 111l8 20q8 20 13.5 35
t13.5 40t11 44t3.5 38t-7.5 30t-23 13h-8q-27 -1 -84 0.5t-104.5 3t-113 -2.5t-119 -13t-112 -31t-102 -55t-80 -86t-54.5 -122q-9 -32 -40 -24q-33 9 -49 48q-30 71 41 153q26 29 64 57q57 42 127 71.5t130 43t137 19.5t125 5.5t118 -2.5t94 -2h11q25 1 43.5 7t39.5 6
q13 0 19 -2q38 -10 62 -50.5t24 -90.5q0 -64 -67 -241.5t-119.5 -317t-27.5 -139.5q10 0 37 18q55 36 114.5 107t100.5 141q43 75 51 102q9 31 8 77q0 14 27 18q48 7 79 -31q58 -70 1 -247q-52 -158 -52 -184q0 -14 6 -14q30 0 127.5 154t108.5 182q76 126 127.5 206
t122.5 170t126 126q41 27 75 27q11 0 17 -2q14 -5 29 -20q5 -5 5 -11t-3 -9q-3 -5 -6 -6.5t-10 -2t-14 -2.5q-71 -25 -154.5 -124.5t-158 -222.5t-148 -243t-145 -201t-126.5 -81zM305 792v1h-2zM241 785q1 1 2 1q2 0 2 1h-2zM212 746q0 1 1 1q1 -1 16 7t31 17t17 11
q-2 0 -18.5 -8t-32 -16.5t-14.5 -10.5v-1zM117 708q94 63 106 68l1 1l2 1h-2h-2q-19 -8 -59.5 -34.5t-45.5 -35.5zM731 120l1 1v2t0.5 2.5t0.5 2.5q0 2 1 4q11 67 31 125q33 98 143 360q16 39 29 102v6l-1 1h-1q-6 -13 -12.5 -38.5t-24.5 -68.5q-27 -67 -56.5 -139.5
t-41 -100.5t-24.5 -61t-17 -48t-8.5 -31.5t-9.5 -40.5q-2 -7 -5 -23t-5 -22q0 -6 -0.5 -14t-0.5 -10v-5q0 -2 1 -4zM784 216q0 1 1.5 2.5t1.5 2.5q16 45 36.5 96t45.5 111.5t39 94.5l33 83q3 8 13 41q0 1 -0.5 4.5t-1.5 4.5q0 -1 -1.5 -3t-2.5 -4q-2 -4 -2 -5
q-123 -300 -151 -377q-3 -9 -7 -26.5t-5 -19.5l1 -2v-3zM995 609q1 0 1 1q1 1 1 5l-2 -1v-5zM985 581q5 4 5 11v1l-1 1q-2 0 -2 -1q-1 -2 -1 -6t-1 -6zM830 189l3 3l9 22q26 68 131 325q13 28 11 41q-3 -1 -5 -4t-3 -6.5t-2 -5.5q-35 -84 -53.5 -128t-33 -80t-18 -45.5
t-15.5 -44t-20 -55.5q-1 -3 -2.5 -8.5t-2.5 -8.5q0 -1 1 -3v-2zM1183 313l4 13q-1 1 -2 1l-1 -1q-1 -4 -1 -13zM1144 184q6 6 6 7q2 9 8 27q4 14 11.5 38.5t10.5 34.5q0 1 0.5 3t0.5 4q1 4 1 12q-4 -1 -8 -13.5t-29 -97.5q-1 -5 -1 -15zM1086 93q2 2 3 4l21 78q2 4 15 54
t13 53l-1 2l-1 2h-1q-1 -1 -2 -1q-1 -2 -3.5 -8.5t-3.5 -9.5q-6 -22 -12.5 -46.5t-14.5 -54.5t-12 -46q-1 -3 -2 -9.5t-1 -7.5q0 -3 2 -10zM1232 267l3 3l-1 4q-2 -2 -2 -4v-3zM1204 189l1 1h1h1l1 1q1 1 7 16.5t11 28.5t5 16v12q-9 -15 -13 -27q-4 -10 -5 -14l-1 -1
q-6 -22 -8 -32v-1zM1199 172q5 4 5 10q0 4 -1 6q-4 -3 -4 -12v-4zM1139 167q5 3 5 9v6q-6 -2 -6 -10q0 -1 0.5 -2.5t0.5 -2.5zM1194 155q5 4 5 10q0 1 -0.5 3t-0.5 3q-5 -4 -5 -10q0 -4 1 -6zM1136 153l1 1l1 10l-4 -9zM1188 139q5 3 5 11v4q-5 -2 -5 -9v-6zM1129 134
q3 0 3 1l-1 4h-1q-1 -2 -1 -5zM1182 122q6 4 6 10q0 1 -0.5 3t-0.5 3q-5 -4 -5 -11v-5zM1179 115l2 2q1 1 1 4l-3 -3v-3z" />
    <glyph glyph-name="X" unicode="X" horiz-adv-x="1226" 
d="M433 -34q-106 -13 -183.5 70t-79.5 179q-1 38 6 71q21 96 94 148.5t146 52.5q74 0 76 -48q0 -7 -20 -16q-28 -13 -54 -35q-8 -8 -11 -12q-49 -52 -72 -160q-25 -118 11 -167q53 -70 207 70q79 72 180 197q5 53 30 198.5t25 213.5q0 44 -9 81q-47 13 -109.5 15.5
t-132 -6.5t-139.5 -34.5t-130 -62.5t-106 -95.5t-65 -129.5q-9 -32 -40 -24q-33 9 -49 48q-30 71 41 153q26 29 64 57q24 18 51.5 34.5t85.5 40.5t125 41.5t170 30t220 12.5q54 0 90 -24q62 -40 79 -141q4 -28 4 -64q0 -48 -6 -100q180 210 326 282q34 17 67 27q36 10 65 13
q28 4 48 1t33.5 -8t21 -12t10.5 -12t3 -7q0 -9 -12 -12q-13 -1 -27.5 4.5t-32.5 3.5q-39 -4 -84 -25q-47 -22 -91 -57l-12 -9q-14 -11 -40 -35q-21 -20 -42.5 -41.5t-46 -49t-41.5 -46.5t-45.5 -54.5t-41 -51t-45.5 -57t-42 -53.5q-51 -325 51 -325q18 0 38.5 11.5t43 36
t41 46.5t43 59t37 57t34.5 57.5t26 43.5q9 14 18 12.5t11.5 -12t-0.5 -18.5q-108 -192 -143 -241q-71 -99 -141 -113q-13 -2 -27 -2q-70 0 -121 56.5t-73 138.5q-175 -187 -308 -202zM305 792v1h-2zM241 785q1 1 2 1q2 0 2 1h-2zM212 746q0 1 1 1q1 -1 16 7t31 17t17 11
q-2 0 -18.5 -8t-32 -16.5t-14.5 -10.5v-1zM117 708q94 63 106 68l1 1l2 1h-2h-2q-19 -8 -59.5 -34.5t-45.5 -35.5zM760 268l3 3q2 12 2 19q1 24 9 78q5 28 17.5 88t18.5 90q7 46 7 95q0 3 -0.5 5.5t-0.5 4v2.5q-1 3 -2.5 7t-1.5 6q-1 -4 -1 -11q-1 -7 -2 -27.5t-3 -31.5
q-19 -109 -29 -156q-12 -52 -16 -90q-3 -17 -5 -53q0 -8 2 -24q0 -3 2 -5zM842 559q4 9 1 10q-1 -1 -1 -10zM803 323l3 3l18 92q2 10 2 15q6 31 16 95v28q0 -1 -2 -2.5t-2 -2.5l-26 -136q-5 -30 -11 -87q0 -1 1 -3zM881 419l2 2q10 60 10 70q-2 0 -2 -1q-8 -25 -12 -67
q0 -2 2 -4zM314 353q19 16 47 54q1 1 1 4q-24 -15 -43 -44q-1 -2 -2.5 -7t-2.5 -7zM320 407q3 3 5 4q-3 0 -5 -4zM313 402l2 2q2 1 3 2q-3 0 -5 -4zM251 310q3 2 4 3q27 45 53 78q2 1 4 9q-19 -10 -36 -37.5t-25 -52.5zM389 374q12 4 13 16q-10 -7 -13 -16zM375 358
q11 3 13 15q-7 -2 -13 -15zM368 347q4 3 6 9zM310 345l2 2v3l1 1q-4 0 -4 -3q1 -2 1 -3zM248 302q1 1 2 5q-3 0 -3 -3q0 -2 1 -2z" />
    <glyph glyph-name="Y" unicode="Y" horiz-adv-x="1247" 
d="M749 -134q-55 0 -100 42q-25 24 -29 30q-8 8 -15 22q-2 3 -2 9q0 10 9 10q1 0 7.5 -1.5t9.5 -1.5q5 0 11 3q5 -4 19.5 -8t20.5 -13q3 -5 16 -18t30 -13q6 0 15 3q19 7 33 13.5t28.5 22t23.5 26.5t25.5 42t26.5 52.5t35.5 74t44.5 91.5q-66 -81 -112 -104.5t-99 -23.5
q-56 0 -88 35t-38 86.5t0 102t21 90.5q18 45 93.5 189t89.5 180q-76 6 -154.5 4t-152 -8t-141.5 -28.5t-123 -56t-96 -90t-61 -132.5q-9 -32 -40 -24q-33 9 -49 48q-30 71 41 153q26 29 64 57q56 41 125 70t124.5 42.5t136 20t120.5 7t119.5 -2t93.5 -2.5h23q28 1 42 7
q3 1 7 2.5t6 1.5q30 13 45 13q25 0 43 -8.5t24 -18.5t0 -16t-10 -8q-11 -6 -19.5 -13t-14 -12.5t-13 -20t-12 -23t-15.5 -34.5t-19 -43q-14 -39 -48 -115t-61 -138.5t-49.5 -126t-21 -99.5t31.5 -36q10 0 40.5 19.5t83 69t109.5 120.5t124.5 189t124.5 259q1 1 1 3q1 5 1 16
l-3 28q0 9 10 9h2q12 0 23 -3q20 -7 32 -19q11 -9 19 -26q4 -9 6 -20q3 -10 3 -22q0 -7 -2 -19q-11 -66 -52 -144q-11 -23 -120 -237l-5 -9l-152 -294q-3 -7 -7 -15l-9 -18t-8 -15h-1q-10 -18 -23 -38q-48 -73 -108 -109t-111 -36zM1265 799h1l2 2v2q-1 2 -1 3q-2 -4 -2 -5
v-2zM305 792v1h-2zM241 785q1 1 2 1q2 0 2 1h-2zM1258 774l2 2v2l1 1l1 3l-1 1q-1 1 -1 2l-2 -2v-9zM212 746q0 1 1 1q1 -1 16 7t31 17t17 11q-2 0 -18.5 -8t-32 -16.5t-14.5 -10.5v-1zM117 708q94 63 106 68l1 1l2 1h-2h-2q-19 -8 -59.5 -34.5t-45.5 -35.5zM915 100
q13 26 152.5 292t146.5 281v1l10 19q9 18 30 63v1l3 11v2q-2 -2 -4 -6q-62 -113 -191.5 -360t-146.5 -304zM644 299q15 100 62 193q2 5 76 145l47 96q2 5 4 15v1q0 2 -1 2q-3 0 -4 -1l-8 -15q-17 -35 -114 -220v-1q-62 -110 -62 -215zM681 345q40 101 83 183q30 57 44.5 86
l19 38t11.5 27t14 33q3 6 3 9v4q0 -1 -2 -1t-2 -1l-5 -10q-108 -209 -124.5 -245t-41.5 -123zM897 18q6 3 61 105.5t117 222.5t115 222l53 103q0 1 10 21v1h1v1q6 16 7 19v4q-1 0 -19 -34t-56 -106.5t-68 -129.5q-212 -409 -218 -417zM735 362q4 0 4 2q3 4 7 12
q81 164 135 283q-2 6 -2 10q-1 -2 -4 -5q-4 -5 -7 -13l-14 -27v-2l-5 -9q-2 -4 -31 -64.5t-54.5 -115t-28.5 -65.5l-1 -4v-1zM1022 170q5 4 48 81t68 126l11 21l117 230v1l1 2q1 2 2 3l1 2v1q1 1 3 5l3 7l4 8q-5 -3 -30 -52q-2 -4 -4 -7v-2q-4 -5 -7 -10v-1l-103 -189
q-112 -207 -114 -226zM980 77q3 0 3 1l16 31l-15 -18q-4 -7 -4 -11v-3zM974 66q5 0 5 7v3q-5 -1 -5 -8v-2zM956 34q13 10 17 30q-9 -7 -17 -30zM951 22q5 3 5 9v2q-5 -2 -5 -11zM945 13l5 8q-3 -1 -5 -8zM894 13l2 3h-2q-1 0 -1 -1q1 -1 1 -2z" />
    <glyph glyph-name="Z" unicode="Z" horiz-adv-x="746" 
d="M587 -161q-62 0 -163.5 30.5t-188 60.5t-111.5 30q-7 0 -11 -2q-15 -6 -32 -6q-31 0 -54 20q-16 13 -26 38q-1 3 -1 9q0 15 13 22q92 55 181.5 144t155 174t166.5 204t200 211q2 2 2 4q0 5 -4 6q-22 5 -68.5 15.5t-70.5 15.5t-63 9.5t-64 1t-54 -14.5t-52 -32
q-49 -44 -59 -119q-3 -23 0.5 -44t2.5 -30q-2 -25 -29 -25q-3 0 -4 1q-24 3 -56 31t-47 69q-14 37 -8 75q3 22 9 40q21 61 80 91.5t136 32t148 -6t141.5 -19.5t91.5 -12q45 0 86 8t58 12t39.5 -6t51.5 -43q8 -10 -13 -21q-65 -36 -133 -96.5t-125.5 -128.5t-115 -143
t-110.5 -144.5t-102 -127.5t-99 -98t-94 -51q19 0 170 -43.5t222 -43.5q33 0 58.5 5.5t38.5 13.5t21.5 16.5t10.5 13.5l2 6q28 0 28 -39q0 -42 -39.5 -78t-115.5 -36zM242 90q-9 -8 -4 -10q17 -7 144 141q58 68 135 163q176 219 391 436q9 9 9 9.5t-15 -11.5
q-69 -57 -147.5 -140t-121 -134.5t-124.5 -153.5q-171 -213 -267 -300zM213 124q-27 -24 -22 -27q10 -6 106 96q94 98 236 267q88 105 286 319q28 31 28.5 33.5t-23.5 -18.5q-32 -28 -62.5 -58.5t-64.5 -68t-54.5 -61.5t-61 -72.5t-56.5 -67.5q-20 -23 -69.5 -83.5
t-74.5 -89t-71.5 -77t-96.5 -92.5zM184 764q4 2 5 3q4 4 5 6q6 7 18.5 21.5t19.5 21.5l6 7q1 2 4 5v1q1 1 -1 3q-14 -7 -33 -26q-22 -24 -24 -37v-5zM238 773h4l7 7q11 11 16 17q9 9 10 12q1 1 1 2v2h1q4 0 6 5h-2q-4 0 -5 -5q-14 -3 -22 -11.5t-17 -25.5v-1q0 -2 1 -2z
M106 79q-27 -21 -21 -24q11 -5 85 65q108 101 273 299q99 118 302 336q25 28 24.5 29t-23.5 -20q-112 -99 -311 -339q-72 -87 -114 -135.5t-102.5 -110t-112.5 -100.5zM301 761q1 1 3 1h2l8 8l3 3q3 3 4 5q4 4 7 10q-11 -3 -26 -22v-1q-1 -1 -1 -4z" />
    <glyph glyph-name="bracketleft" unicode="[" horiz-adv-x="389" 
d="M636 940q9 -12 -3.5 -28.5t-35.5 -24.5q-31 -13 -111 -8q0 -35 -22 -94v-1q-12 -33 -35 -82l-5 -8q-1 -3 -3.5 -8.5t-3.5 -7.5q-6 -10 -8 -15q-5 -6 -6 -12q-4 -6 -5 -9q-76 -142 -95 -175l-3 -6q-4 -6 -5 -10l-14 -23q-1 -3 -3.5 -7.5t-3.5 -5.5q-2 -5 -7 -14t-6 -11
q0 -1 -1 -1l-6 -12q-4 -7 -7 -14l-6 -10l-3.5 -7t-3.5 -8l-6 -12q-36 -72 -73.5 -179.5t-38.5 -173.5q80 0 93 11q4 4 8 11q6 8 13 2t36 -43q9 -12 -3.5 -28.5t-35.5 -24.5q-35 -14 -130 -6q-12 0 -18 1q0 1 1 1q-1 0 -3 0.5t-3 0.5q-22 6 -43 28q-27 32 -30.5 88t12.5 119
t38 119t48 105q6 12 17 33.5t16 30.5q1 0 1 1l2 3q0 1 1 3h1q3 8 8 16q12 20 22 38l9 15q15 25 42.5 71t38.5 65q8 14 10 16q3 5 5 10q6 9 16 27q18 30 30 52q2 4 4 6q1 3 5 9q1 2 2 5t2 4l1 2q2 3 3 5q11 20 33 65q2 4 7 14.5t6.5 13.5t6 14t5 14t4 14.5t2.5 15.5t1 16.5
t-1 18.5q-1 5 2 8.5t8 3.5q2 0 26 -1t47 -1.5t26 -0.5q28 4 60 12q6 1 13 6t10.5 4t14.5 -11t30 -35zM528 950l-2 -2l2 -2q23 0 32 8q-6 0 -16 -2t-16 -2zM569 933l1 1q-1 0 -1 -1zM546 929q12 -3 20 3q-16 2 -20 -3zM527 924q14 0 17 4h-18q-2 0 -3 -1zM564 896q2 0 2 1
t-1 1h-3zM404 865v-3q1 2 3 4l-1 4q-1 -1 -1 -2q-1 -2 -1 -3zM395 837v-3q0 2 1 3t1 2l2 3v1q0 2 -2 4q0 -1 -1 -3t-1 -7zM120 328v1q1 1 1 2q5 9 15 29l9 18q18 34 28 50q0 1 1 2v1q97 172 141 245l4 8q3 5 11 18.5t11 19.5l3 6q25 45 29 54q3 5 7 15l1 1l7 16l1 1
q2 5 4 17q-3 -1 -5 -3.5t-3.5 -7t-2.5 -5.5l-23 -44l-1 -1v-1l-7 -13l-12 -24q-2 -4 -4 -6v-1q-2 -4 -7 -13t-8 -14l-1 -2l-16 -27l-8 -14l-1 -1q-4 -6 -5 -9q-2 -4 -3 -5q-2 -4 -4 -5v-1q-2 -4 -6.5 -11t-5.5 -10q-17 -28 -49 -84q-22 -38 -33 -58l-24 -42v-1q-1 -1 -1 -2
l-3 -4q-4 -6 -5 -10q-2 -2 -4 -6l-3.5 -7t-4.5 -7q-2 -4 -2 -5h-1q-3 -5 -6 -12t-5.5 -11.5t-4.5 -8.5l-7 -14q-6 -12 -9 -17q-1 -2 -2.5 -6t-2.5 -6q-2 -3 -4.5 -9t-3.5 -9q-2 -4 -2 -5q-4 -8 -5 -12l-9 -23q0 -1 -1 -3q-11 -29 -11 -37q-1 -1 1 -5l1 2l1 1v1q1 1 1 2l2 4
q0 1 1 2q0 1 2 5l9 24q4 8 11.5 26t11.5 26l6 13zM400 789v-4l1 1l1 1l1 1l-2 4q0 -2 -1 -3zM398 783q-4 -3 -6 -12q6 2 6 12zM195 405l2 2l8 16q1 1 2.5 4t2.5 4v1q1 1 1 2q2 4 9 16.5t11 18.5l8 15l1 1q24 45 58 103q4 10 11 20l38 68q0 1 1 1q15 27 34 65q9 20 9 23l1 1
v4q-3 -3 -7 -9l-78 -136q-8 -14 -24 -42.5t-24 -43.5l-10 -18l-10 -19q-7 -13 -38 -69q0 -1 -0.5 -1t-0.5 -1l-9 -17l-3 -6q-2 -2 -2 -4l-12 -21v-1l-1 -2l-4 -7q-1 -2 -2.5 -4.5t-2.5 -4.5l-2 -4l-1.5 -3t-0.5 -2l-1 -1l-3 -6v-1q-1 -1 -1 -2q-5 -7 -9 -18q-2 -3 -6 -13
q0 -1 -2 -3q0 -2 -1 -3q0 -1 -1 -2v-2q-1 -1 -1 -3q-4 -9 -6 -17v-1q1 2 8 15l4 7q3 5 5 10q1 1 2.5 4t2.5 4t1 3l9 15l9 18l6 10l1 2q12 22 18 34zM416 725l2 2q0 1 -1 2q0 -1 -0.5 -1t-0.5 -1v-2zM407 705l3 3q-1 1 -1 2zM402 695q2 5 3 6q-3 -1 -73.5 -129.5
t-73.5 -134.5q-1 0 -1 -1l-19 -36v-1l-4 -7q-10 -20 -15 -29q0 -2 -1 -3l-2 -4l-2 -4l-4 -10q-2 -2 -2 -4l-2 -4q-1 -1 -1 -3l-2 -4q0 -1 -1 -3l-2 -3v-3l-1 -2l-1 -2v-1q1 1 3 5l2 3l1 2q1 0 1 2l2 3q21 39 23 43v2q2 2 2 3v1l1 1q2 4 2 5l1 1q9 16 16 30l2 3q7 14 8 15
q9 16 31.5 58.5t35.5 66.5q1 1 3.5 5.5t3.5 7.5q5 10 15.5 29.5t15.5 28.5l6 12q3 4 7 12q2 6 8 16v1l4 6l7 14zM187 292l2 5q-2 -2 -2 -3v-2zM128 281l1 1q-1 0 -1 -1zM126 275q1 1 1 4q0 -1 -1 -1l-1 -2q0 -2 1 -3v2zM180 273v3l-1 -1q0 -1 -1 -1q0 -2 1 -2v1h1zM158 -36
l-2 -2l2 -2q23 0 32 8q-6 0 -16 -2t-16 -2zM200 -52q-1 0 -1 -1zM176 -57q12 -3 20 3q-16 2 -20 -3zM156 -58q-2 0 -3 -1l4 -3q14 0 17 4h-18zM194 -90q2 0 2 1t-1 1h-3z" />
    <glyph glyph-name="backslash" unicode="\" horiz-adv-x="588" 
d="M369 -30q-5 0 -8 6q-3 5 0 11q0 1 1 3t1 3q15 48 -42.5 158.5t-113.5 188.5q-3 3 -7 9l-10 13q-2 2 -6 8q-5 5 -8 11q-6 6 -8 10h-1l-15 20l-9 10q-1 2 -15 20l-6 7q-3 3 -4 5q-36 43 -112 141q-1 1 -2.5 3.5t-2.5 3.5q-1 2 -4 5t-4 5q-1 1 -4 5t-5 7l-9 12q-3 3 -5 7
q-30 42 -44 68l-1 1q-11 19 -19.5 39t-12 31.5t-3.5 15.5q-5 33 10 60.5t43 33.5q11 2 11 -9q1 -8 2 -15t3 -14t3.5 -11.5t5.5 -12t5 -10.5t6.5 -11t6.5 -9.5t7.5 -10.5t7.5 -10q30 -42 39 -53l5 -6q2 -4 5 -7l6 -7q1 -2 4 -5q2 -2 35 -41l18 -22l7 -8q3 -4 11 -12
q8 -9 41.5 -47.5t51.5 -60.5q6 -8 10 -12l25 -30q3 -3 11 -13v-1l1 -1l3 -3v-1q14 -17 40 -51q24 -31 46.5 -66.5t45.5 -80t35.5 -85t16 -81.5t-13.5 -69q-11 -23 -32 -36q-18 -9 -32 -9h-11zM-36 795v3q0 1 -1 2l-1 2v-4q0 -1 2 -3zM-22 772l-1 2q0 1 -0.5 3.5t-1.5 3.5
l-2 2l-1 -4l1 -1q0 -1 2 -3q0 -1 1 -1zM365 269l1 2v3q-9 18 -17 31q0 2 -1 2l-11 20l-6 9q-1 2 -4 5q-6 10 -9 14q-1 2 -4 5.5t-3 4.5q-4 6 -10 14l-9 12q-6 8 -19 25v1q-2 2 -4 3l-9 12l-2 2q-1 2 -2 3l-6 7q-1 2 -3 4l-2 2l-28 34l-38 45q-41 50 -56 67q-8 10 -15 17
q-1 2 -4 5l-3 3q-2 3 -6 7q0 1 -1 1q-4 6 -9 11q-4 5 -11 13t-8 9l-1 2l-17 21l-1 1q-3 3 -4 5q-10 12 -15 19l-8 11l-1 1q-18 24 -27 35q-1 1 -2 3t-2 3.5t-2.5 3t-3 2.5t-3.5 1q5 -12 7 -15v-1l9 -12q1 -1 1 -2l9 -12q7 -10 34 -43q1 -1 2 -2.5t2 -2.5q4 -5 12.5 -15.5
t12.5 -14.5t5 -6q11 -13 38 -45t59 -70t66 -80l1 -1l1 -1v-1q8 -9 32 -40l12 -15q1 -2 17 -23l1 -2l8 -11l7 -10q14 -19 28 -43q8 -11 13 -20l2 -4q1 -1 1 -2q2 -2 2 -3zM-19 725q0 2 -1 4q-1 1 -1 2q-1 -1 -1 -4l1 -1h1zM-10 714q-2 8 -7 9q2 -9 7 -9zM300 322v1l-8 15
q-1 1 -1 2q-2 2 -2 3l-4 6q-1 2 -4 5.5t-3 4.5q-2 3 -11 15l-1 2q-1 1 -2 3l-2 2q0 1 -12 15l-4 6l-2 2q-3 4 -13 17l-3 3q-2 4 -4 5l-10 14l-1 1h-1v1q-33 42 -44 55l-12 15q-8 10 -12 14q-23 30 -56 69q-43 53 -90 108l-7 7v-4h1q2 -7 12 -20q2 -2 40 -52q1 0 1 -1l45 -54
l13 -16q9 -12 31.5 -39t35.5 -43l1 -1q6 -8 10 -12q1 -1 9.5 -11.5t12.5 -16.5l2 -2q2 -3 6 -7l10 -13l1 -1q17 -22 22 -27q0 -1 1 -2q2 -3 7 -8q1 -1 5 -6.5t6 -7.5l9 -12l2 -2q1 -1 2.5 -3.5t2.5 -3.5l7 -8l4 -6zM-23 666v1l-1 1q0 1 -1 1v-2q1 0 1 -0.5t1 -0.5zM-12 649
l-2 5l-1 -2zM235 334v1q-1 1 -1 2l-2 4q-2 2 -2 3l-4 6q-1 1 -1 2l-3 3l-2 4q-2 2 -6 8q-2 2 -2 3q-2 2 -2 3l-2 2q-12 16 -17 24q-4 4 -5 6v1l-23 29l-1 1q-7 10 -88 110t-84 101q0 -1 2 -2.5t2 -2.5q2 -4 4 -5q3 -6 8 -11q2 -2 4 -6h1q4 -7 10 -13l7 -10q2 -3 8 -9
q6 -8 18.5 -24t17.5 -23q8 -10 8 -11q17 -21 44.5 -55.5t35.5 -44.5q0 -1 9 -12l2 -3l19 -24h1v-1l3 -3q0 -1 1 -2q0 -2 2 -2q0 -1 1 -2q10 -14 27 -35q0 -2 2 -2q0 -2 1 -2l1 -2l2 -2zM248 317v2q-2 2 -2 3q0 -1 2 -5zM305 313v3l-3 3l2 -3q0 -2 1 -3zM259 300v2l-1 1l-1 1
v-2l1 -1z" />
    <glyph glyph-name="bracketright" unicode="]" horiz-adv-x="341" 
d="M97 -103q-11 -2 -82 -2.5t-102 7.5q-22 9 -35 25.5t-4 27.5q19 25 30 35t14.5 11t11 -4t12.5 -6q20 -5 50 -10q-17 73 14 180t79 196l34 64v1l4 6l9 16l21 38l9 15q15 25 42.5 71t38.5 65l10 16l6 10q10 18 16 27q2 3 13 22.5t16 29.5l4 6l5 9q1 3 5 9l3 7q11 20 33 65
q1 3 10 22t13 29q-59 -2 -85 8q-22 9 -35 25.5t-4 27.5q36 47 42 47q2 0 9 -10q3 -4 6 -7q11 -10 55 -9t75 -14.5t31 -68.5q3 -5 -3 -35t-18 -64v-1q-19 -50 -35 -82q-3 -4 -4 -8q-1 -2 -2.5 -4.5t-2 -4t-1.5 -3.5l-2 -4q-6 -10 -8 -15l-6 -12l-5 -9q-88 -165 -94 -175
q-2 -2 -4 -6l-5 -10q-3 -4 -6 -10t-5 -9t-3 -4q-3 -8 -7 -13q-2 -5 -7 -14t-6 -11v-1q-3 -4 -7 -12q-1 -2 -3.5 -6.5t-3.5 -7.5q-3 -5 -5 -10q-6 -10 -8 -15l-6 -12q-46 -92 -87.5 -223.5t-15.5 -177.5l3 -6q3 -5 2 -11q-3 -6 -8 -8zM361 953q1 0 3 2l-1 1h-2
q-5 1 -15.5 2.5t-15.5 2.5q8 -8 31 -8zM320 940h1l-1 1v-1zM344 935q-4 5 -20 3q5 -5 20 -3zM362 931q1 0 2.5 1.5t2.5 1.5h-1l-2 1h-19q6 -6 17 -4zM323 903h3q1 0 1 2h-3q-1 -1 -1 -2zM391 862l2 4q0 3 -1 4q0 -1 -2 -5v-2q1 0 1 -1zM381 834q1 2 1 3q1 1 1 2l2 3q0 1 1 1
q0 1 -3 4q0 -1 -1 -3q0 -1 -0.5 -3t-0.5 -4v-3zM54 210l1 2l1 1v1q1 1 1 2l2 4q1 1 1 2q1 1 1 2q1 2 1 3q6 16 10 24q17 42 22 52l6 13l6 12l2 3q4 9 14 29q6 12 10 18q6 12 27 50q0 1 1 2q0 1 1 1q40 72 140 245q1 4 5 8l21 38l3 6q25 45 29 54l8 15v1q2 2 4 8t4 8v1
q1 3 2.5 8.5t2.5 8.5q-4 -1 -6 -3.5t-3.5 -7t-2.5 -5.5l-23 -44l-1 -1v-1q-6 -11 -7 -13l-15 -30l-1 -1q-6 -12 -15 -27l-1 -2l-16 -27l-8 -14l-1 -1q-4 -6 -5 -9q-2 -4 -3 -5q-2 -4 -3 -5v-1q-12 -20 -13 -21l-49 -84q-22 -38 -33 -58q-16 -28 -23 -42q-2 -2 -2 -3l-3 -4
l-3 -6q-1 -3 -2 -4q-2 -4 -4 -6q-3 -7 -8 -14q0 -1 -2 -5q-12 -24 -17 -32l-7 -14q-6 -12 -8 -17l-6 -12q-1 -3 -3.5 -9t-4.5 -9q0 -3 -2 -5q-1 -2 -2.5 -6t-2.5 -6l-9 -23q0 -2 -1 -3q-11 -29 -11 -37q0 -3 1 -5zM386 785q1 1 2 1v1q1 0 1 1l-1 2v2q-1 -1 -1 -3
q-1 -1 -1 -4zM378 771q5 2 7 12q-5 -3 -7 -12zM115 281l9 17l3 7l6 10l4 8l2 3q2 5 8 15l9 18l6 10l1 2l19 34q0 1 1 2l8 16q1 1 2.5 4t2.5 4q0 1 1 1v2l20 35l8 15q1 0 1 1q8 14 28 50t30 53q1 2 5 9.5t6 10.5l38 68l1 1q15 27 34 65q8 14 10 23v5q-3 -3 -7 -9
q-47 -82 -77 -136l-49 -86l-10 -18q-2 -4 -5.5 -10.5t-4.5 -8.5q-30 -55 -37 -69h-1q0 -1 -1 -2l-9 -17l-3 -6l-1 -2l-1 -2q-8 -14 -11 -21q-2 -2 -2 -3t-1 -2.5t-2 -2.5t-1 -2q-9 -18 -10 -19l-3 -6v-1q-1 -1 -1 -2q-5 -7 -9 -18q-2 -3 -6 -13v-1q-1 -1 -1 -2l-2 -3
q0 -1 -1 -2v-2v-1q-1 -1 -1 -2q-4 -9 -6 -17v-3zM403 725q0 1 1 2v2l-2 -2zM394 705l2 3q-1 1 -1 2zM184 313q1 1 3 5l2 3l1 2q1 0 1 2q2 2 2 3q8 13 23 43q0 1 1 2q0 1 1 3v1l1 1q2 4 2 5h1v1q9 16 16 30l2 3q1 2 2.5 4.5t2.5 4t1.5 3t1.5 2.5v1q41 75 67 125q4 5 7 13
q22 40 31 58l7 12l6 12q1 2 2 4.5t2 4t2 3.5l2 4v1q2 2 4 6l7 14l3 6q2 5 3 6q-2 -1 -37.5 -65.5t-72.5 -131t-37 -67.5l-1 -1l-19 -36v-1l-4 -7q-10 -20 -14 -29l-2 -3v-2q-1 -1 -1 -2q-2 -2 -2 -4q-3 -5 -5 -10l-1 -2l-1 -2l-2 -4v-1q-1 -1 -1 -2l-2 -4q0 -1 -1 -3l-2 -3
v-3l-1 -2l-1 -2v-1zM174 292q0 3 1 5l-2 -3q0 -1 1 -2zM112 273q0 1 1 2v4q0 -1 -1 -1l-1 -2l1 -1v-2zM165 272l1 1v3l-1 -1v-1h-1zM-18 -38q1 0 3 2l-2 1q-5 1 -16 2.5t-16 2.5q10 -10 31 -8zM-59 -51h1l-1 1v-1zM-35 -56q-4 5 -20 3q6 -6 20 -3zM-17 -60q1 0 2.5 1.5
t2.5 1.5l-1 1h-2h-18q5 -6 16 -4zM-53 -89l2 3h-3l-2 -2h1q1 -1 2 -1z" />
    <glyph glyph-name="asciicircum" unicode="^" horiz-adv-x="358" 
d="M332 386q-40 -1 -66 66t-33 185q-1 1 -1 5v5q-2 4 -4 5q-3 0 -6 -3q-6 -7 -40.5 -45.5t-44.5 -48.5q-44 -44 -74 -65q-14 -10 -24 -8.5t-23 14.5l-12 11q-8 7 0 15q125 85 255 356q6 14 15 10q4 -1 14.5 -2t15.5 -3q35 -16 35 -49q1 -26 -1 -120t1 -173t17 -119
q5 -13 -2.5 -24t-21.5 -12z" />
    <glyph glyph-name="underscore" unicode="_" horiz-adv-x="367" 
d="M-159 -138q-6 -12 -24 6q-27 25 -15 50q22 52 197 33q65 -7 131 -12q66 -6 130 14q25 8 43 -9t14.5 -42t-31.5 -38q-31 -12 -101.5 -7t-141.5 16.5t-131.5 11t-70.5 -22.5zM-133 -62h2l-1 1h-3q1 -1 2 -1zM-152 -67q1 0 2 1l-1 1h-3zM225 -76q21 0 28 8q-5 -1 -14 -2.5
t-14 -2.5q-1 0 -1 -0.5t-1 -0.5zM-167 -71v1h-2zM-129 -80l3 2q-1 0 -2 1l-2 -1zM-148 -84q2 0 3 1q0 1 -1 1t-2 1v-3zM261 -89l1 1zM241 -94q12 -2 17 3q-14 2 -17 -3zM224 -98q11 -2 15 4h-16h-1l-2 -1l2 -2zM257 -126h2l-1 2h-3q0 -2 2 -2z" />
    <glyph glyph-name="grave" unicode="`" horiz-adv-x="280" 
d="M208 677q-45 26 -80 75q-36 50 -26 81t38 31t35 -2q1 -1 22 -49q33 -69 78 -105q14 -11 -7 -26q-28 -20 -55 -8q-3 2 -5 3zM169 828q2 10 -4 13q0 -11 4 -13zM155 808q1 4 -6 19h-2q-1 -1 -1 -2q5 -16 9 -17zM174 818q0 8 -4 9q0 -8 4 -9zM182 801q0 1 -1 4t-1 5
q-1 2 -5 6q0 -5 1 -8q4 -7 6 -7zM160 798q0 8 -5 9q-2 -8 5 -9zM125 789q0 9 -4 13q0 -10 4 -13zM165 789q0 7 -5 8q0 -7 5 -8zM169 780q0 6 -3 7z" />
    <glyph glyph-name="a" unicode="a" horiz-adv-x="541" 
d="M305 2q-35 0 -60.5 28.5t-36.5 69.5q-2 5 -4 15q-2 18 -2 27q0 18 11 48h-1l-18 -21q-9 -11 -20 -23.5t-24 -27t-20 -22.5q-16 -16 -50 -46q-9 -7 -29 -19q-11 -7 -24 -7q-76 0 -90 86q-15 88 36 201q53 115 133 156q33 17 67 17h7q24 -2 48 -12q38 -18 50 -59
q4 -14 6 -23q1 -4 5 -4q2 0 3 1t2.5 3.5t2.5 3.5q13 20 19 36q14 28 10 42v1q-2 6 -2 9q0 10 19 10h8q32 -3 60.5 -29t25.5 -66q0 -2 -0.5 -6.5t-1.5 -6.5q-4 -28 -15 -55l-14 -29q-8 -19 -25.5 -58t-26.5 -58q-29 -71 -35 -94q-13 -46 0 -46q6 0 15.5 8t22.5 24.5t26 35
t31 47.5t32 52t36.5 59t36.5 59l19 29q5 8 13.5 2.5t10.5 -16.5q2 -8 -3 -16q-125 -212 -150 -250q-11 -18 -17.5 -26.5t-20 -22.5t-30 -20.5t-36.5 -6.5zM226 123l3 5q8 32 14 48q21 54 42 101q2 5 6.5 14.5t6.5 14.5l31 61q8 20 13 30l3 8v1q2 6 2 8q0 3 -1 5q-5 -2 -5 -3
l-24 -54q-20 -39 -23 -47q-20 -38 -43 -94q-2 -4 -5.5 -13t-5.5 -14q0 -1 -1 -3t-1 -3q-4 -11 -14 -58v-6q1 0 2 -1zM42 74h2q2 0 3 1q48 35 134 153l27 39q5 6 5 15q0 3 -0.5 7t-0.5 6q0 3 -2 3h-1q-1 -1 -2 -1h-1q-7 2 -7 6q0 2 1 3l10 18q15 30 17 48q-1 4 -1 11
q0 2 -1 10t-2.5 12.5t-5.5 8.5l-1 1q-26 0 -59 -41q-50 -62 -91.5 -170t-25.5 -124q1 -1 1.5 -3t0.5 -3zM263 153l6 6q17 42 68 153q1 1 2.5 4.5t2.5 5.5q8 18 13 27q0 1 1 3l3 7q1 3 9 26q1 2 -1 8l-3 -3l-1 -1l-36 -75q-10 -22 -52 -118q-6 -14 -6 -16l-3 -8v-3l-1 -2
q-1 -2 -1.5 -5t-0.5 -5v-4zM-3 181l21 47q21 46 42 93.5t21 50.5q-17 -14 -48.5 -84.5t-35.5 -106.5zM12 299l1 1q2 1 3 2q29 58 29 62l-1 1v1q-12 -13 -34 -61q0 -2 2 -6zM401 348l2 1l1 1v5l-1 -1l-2 -2v-4zM235 350h1v2zM353 239q5 3 6 4q1 2 11 25l12 26q0 3 2 5v1l1 2
l15 33q0 1 0.5 3t0.5 3v6l-5 -5v-1q-1 -1 -1 -2q-4 -8 -11.5 -24.5t-11.5 -24.5l-18 -41q-1 -3 -1 -9v-1zM14 136v2l90 193q2 4 2 6q-2 -4 -2 -5h-1q-8 0 -49.5 -93t-41.5 -100q0 -1 2 -3zM320 163l1 1l2 1l30 66v7h-1l-2 -1q-2 -1 -3 -2q-8 -20 -26 -60q-1 -3 -1 -12z
M-32 170q2 4 2 5q1 4 2.5 13t2.5 14q-3 -3 -4.5 -7.5t-2.5 -9.5t-2 -8v-1q0 -1 1 -3t1 -3zM315 152h1q3 2 3 8v2q-4 -2 -4 -10zM262 145v5v-1q-1 -1 -1 -2t1 -2zM305 126h1q9 9 9 22l-1 2q-9 -10 -9 -24z" />
    <glyph glyph-name="b" unicode="b" horiz-adv-x="503" 
d="M-20 -4q-21 1 -37 10.5t-26.5 40t-4 79t42 136.5t100.5 202q8 16 16 28q18 32 57 97t56 95t38.5 73.5t28 72t1.5 50.5q-1 4 2.5 7t7.5 3q33 2 57.5 -21.5t24.5 -57.5q1 -29 -11 -68q-11 -42 -55 -130q-10 -18 -27 -51t-31.5 -60t-28.5 -51q-3 -5 -8.5 -15t-10 -18
t-8.5 -15q-19 -34 -39 -76q-3 -6 -7 -16q20 35 73 108q12 19 36 43q30 30 81 22q3 0 11 -2q23 -5 40.5 -24.5t22.5 -43.5q4 -23 4 -51q0 -32 -6 -62q-9 -49 -39 -112t-62 -111q29 22 54 46.5t47 53t36 48t34 52t28 43.5l22 33q14 20 22 -1q6 -15 1 -24q-15 -24 -20 -33
q-32 -55 -54.5 -90t-58.5 -79t-69.5 -69t-79 -42.5t-96.5 -17.5q-77 0 -132 41q-1 -3 -1 -8t-1 -7q-1 -13 -10 -21t-21 -7zM265 798l2 3q0 1 -1 3v1q0 -1 -1 -2t-1 -2v-1zM257 774l4 8l-3 3l-1 -2v-9zM-13 226l2 2l1 2q2 5 4 11q36 94 84 178q6 11 19 33.5t19 33.5
q119 199 150 271q2 3 4 15q-5 -1 -10 -14q-40 -77 -41 -79q-9 -17 -31.5 -54.5t-26.5 -44.5q-9 -15 -26.5 -45.5t-26.5 -45.5l-51 -90q-39 -68 -59 -125q-3 -8 -7 -24.5t-5 -18.5v-2q1 -2 1 -3zM265 730l3 3v1l-1 2q-1 0 -1 -2v-2q-1 -1 -1 -2zM259 719q5 1 5 9q-5 -2 -5 -9
zM39 288q37 67 100 183q24 44 69 124q8 14 25.5 47t27.5 51q9 16 7 24q-2 -2 -6 -8q-106 -187 -115 -203q-3 -5 -8 -14.5t-8 -14.5q-40 -73 -66 -125q-23 -41 -26 -64zM286 678l1 1v2l-1 -1v-2zM279 661l2 2q-1 1 -1 2zM97 316q3 4 32 62l1 1l4.5 9t11 20.5t13.5 24.5
q105 198 118 224q-8 -4 -121 -217q-8 -14 -8 -15q-6 -11 -28.5 -56t-22.5 -53zM71 62q-7 -17 14 -24q33 -11 73 26q13 12 26 31q31 44 61 126q15 40 23 92q0 5 2 14t2 13l6 41q0 5 1 14.5t1 14.5q0 4 -4 8h-2q-3 2 -6 -1q-24 -16 -51 -52q-31 -42 -67 -122q-15 -34 -79 -181
zM301 385l1 1q3 1 3 6v6l-3 10q-2 -6 -2 -9v-4zM298 356q1 1 2 2.5t2 2.5t1 2q0 3 -1 10t-1 10q-1 0 -1 1l-3 -8v-1q-1 -6 1 -19zM324 344q4 3 2 14q0 2 -2 2l-1 -1q0 -3 0.5 -8t0.5 -7zM295 332q7 5 3 22q-7 -6 -3 -22zM320 320q5 5 3 21q-5 -4 -3 -21zM287 292q9 13 8 38
l-3 -2q-7 -26 -5 -36zM304 250h1q18 34 15 69l-2 -1q-13 -40 -14 -68zM357 298q3 3 4 5q0 1 -2 5l-1 -2v-2q0 -4 -1 -6zM87 298q1 1 1 2q0 2 1 2l-2 -2v-2zM355 279q2 3 2 15q-2 -10 -2 -15zM283 274q6 2 4 16q-4 -3 -4 -16zM27 281q0 1 0.5 1t0.5 1v3q-2 0 -2 -2v-1
q1 -1 1 -2zM349 262q4 3 4 14q-1 -1 -4 -14zM279 256q6 3 4 16q-4 -3 -4 -16zM349 254v6q-2 -2 -2 -3t2 -3zM24 85q4 6 6 10q12 31 19.5 50.5t9 24.5t8 20.5t20.5 48.5q3 5 5 18q-4 -10 -7 -15q-45 -101 -61 -157zM278 247v1l1 2v4l-3 -3q0 -2 2 -4zM300 232q6 6 3 17
q-5 -5 -3 -17zM295 222q1 1 1.5 2.5t1.5 3t1 2.5q-4 -1 -4 -8zM268 218l1 2h-1v-2z" />
    <glyph glyph-name="c" unicode="c" horiz-adv-x="414" 
d="M99 6q-77 0 -118 43.5t-41 119.5q0 109 73.5 210.5t177.5 110.5h16q78 0 105 -40q20 -36 11 -76.5t-32.5 -74t-40.5 -33.5q-41 0 -45 10q-1 1 -1 3q0 4 2.5 6.5t6.5 5t6 4.5q28 26 36 63q3 10 3 20q0 30 -23 58q-17 21 -58 -24.5t-76 -128t-35 -152.5q0 -31 17 -55
q17 -21 49 -16q21 2 43 13t44 31.5t40 39t40 48.5t34 46.5t32 46.5l24 36l21 32q10 15 21 -2q8 -13 3 -22q-87 -146 -134 -202q-101 -121 -201 -121zM285 399h1v1l-1 1v-2zM270 396h1v4h-2zM-4 139q3 0 3 3l-1 25h-1v24l-1 2v3q-8 -14 -8 -32q0 -15 4 -22q3 -3 4 -3z
M-33 127l-3 59q-2 4 -2 5q-3 -3 -3 -4q-3 -11 -3 -23q0 -20 11 -37zM45 152l1 9q0 1 -1 2q0 1 -1 2v-7q0 -5 1 -6zM45 121q2 2 2 4l-3 24q-3 -3 -3 -4q0 -10 2 -20q0 -2 2 -4z" />
    <glyph glyph-name="d" unicode="d" horiz-adv-x="548" 
d="M302 7q-22 -2 -43 12q-56 44 -53 126q2 20 4 33q0 1 0.5 4.5t0.5 5.5l-6 -8l-74 -84q-16 -16 -50 -46q-9 -7 -29 -19q-11 -7 -24 -7q-76 0 -90 86q-15 88 36 201q53 115 133 156q33 17 67 17q26 0 55 -12q10 -5 18 -10.5t13.5 -13t9 -13.5t6.5 -14l4.5 -12t3 -11.5
t1.5 -8.5q1 -3 5 -3q16 30 25 45q26 46 83 141t81 139q64 119 54 169q-1 4 1.5 7t7.5 3q35 1 60 -25q15 -16 20 -35q0 -2 2 -8v-11q1 -27 -10 -68q-12 -41 -56 -130q-1 -1 -4 -7q-47 -92 -83 -155q-134 -234 -140 -339q-1 -19 3.5 -28t11.5 -7q6 1 16.5 11t24 27.5
t26.5 35.5t30 44.5t28.5 44.5t28.5 44.5t23 36.5l19 29q14 23 24 4q8 -14 2 -25l-16 -27q-7 -11 -27 -45.5t-28 -48t-26.5 -43t-28.5 -43t-27 -36t-29 -33t-27 -23t-29 -18t-28 -5.5zM545 798l2 3v1l-1 1v2q0 -1 -1 -2t-1 -2t1 -2v-1zM537 774l4 8q-2 2 -2 3l-2 -2v-9z
M253 226l2 2l1 2q2 5 4 11q31 81 84 178q45 80 85.5 150.5t59 102t30.5 56.5l6 13l1 1l6 14v1q2 3 4 15q-5 -1 -10 -14l-20 -38l-2 -3q-1 -6 -5 -11l-11 -21l-3 -5v-1q-11 -18 -13 -24q-1 0 -1 -2q-7 -9 -14 -24l-3 -3q-1 -3 -5 -9v-1q-5 -7 -5 -8q-2 -2 -2 -4l-3 -5
q-8 -12 -12 -19q-9 -15 -104 -181q-39 -70 -59 -125q-3 -8 -7 -24.5t-5 -18.5v-2q1 -2 1 -3zM545 730l3 3q1 1 0 2l-1 1q-1 0 -1 -2v-2q-1 -1 -1 -2zM539 719q5 1 5 9q-5 -2 -5 -9zM309 288q61 117 169 307q10 18 28.5 53t24.5 45q9 16 7 24q-2 -2 -6 -8
q-106 -187 -115 -203q-38 -68 -82 -154q-23 -41 -26 -64zM566 678l1 1v2l-1 -1v-2zM559 661l2 2q-1 1 -1 2zM377 316q17 24 32 62q111 204 148 279q-3 -1 -64.5 -113.5t-64.5 -118.5q-6 -11 -28.5 -56t-22.5 -53zM43 74h2q2 0 3 1q44 30 134 153q13 18 21 31t10.5 19.5
t2.5 10.5t-2.5 5t-4.5 2.5t-4 3.5t-0.5 8t6.5 16q16 31 16.5 59t-10.5 32q-37 0 -86 -78.5t-76.5 -161t-13.5 -95.5q1 -1 1.5 -3t0.5 -3zM-2 181l21 47q21 46 42 93.5t21 50.5q-17 -14 -48.5 -84.5t-35.5 -106.5zM15 299q4 2 18.5 32t13.5 35q-10 -11 -22.5 -34.5
t-9.5 -32.5zM237 349v3l-1 -2zM15 136v2q39 113 89 195q-1 -1 -6 -6.5t-8.5 -11t-10.5 -16t-14 -24.5t-15 -33t-17.5 -45.5t-19.5 -57.5q0 -1 2 -3zM367 298q1 1 1 2q0 2 1 2l-2 -2v-2zM307 281q0 1 0.5 1t0.5 1v3q-2 0 -2 -2v-1q1 -1 1 -2zM360 280q1 1 1 2v2l-1 -1v-1v-2z
M-31 170q2 4 2 5q1 4 2.5 13t2.5 14q-3 -3 -4.5 -7.5t-2.5 -9.5t-2 -8v-1q0 -1 1 -3t1 -3z" />
    <glyph glyph-name="e" unicode="e" horiz-adv-x="385" 
d="M80 15q-70 0 -108 69t-22 151q17 82 69 154t118 95q14 5 26 6q2 1 6 1q6 1 17 1q17 0 26 -2q12 -2 17 -4q36 -11 52 -40l3 -6q5 -11 8 -24q3 -15 3 -30q0 -20 -6 -39q-29 -89 -101 -121q-14 -6 -22 -8q-18 -4 -29 -4q-28 0 -44 8q-5 4 -11 4q-7 0 -10 -14q-7 -22 -12 -49
q-3 -15 -3 -31v-13q1 -21 12 -34.5t30 -13.5h8q86 0 253 250l17 26q14 20 24.5 7t3.5 -25l-16 -27q-36 -62 -63 -102.5t-67.5 -88t-85.5 -72t-93 -24.5zM107 255h15q20 0 44.5 14t42.5 39q14 18 21 40q7 23 7 44l-1 7q0 4 -2 14q-2 7 -6 7q-24 0 -52.5 -28.5t-53.5 -73.5
q0 -1 -1 -1l-11 -20l-3 -6q0 -1 -2 -5q0 -1 -1.5 -4.5t-2.5 -5.5q-1 -1 -1 -2v-1l-1 -1q-2 -4 -2 -6q0 -9 10 -11zM16 204q2 2 2 5q1 2 14 57.5t13 57.5q0 -1 -9.5 -25.5t-16.5 -50.5t-5 -40q0 -2 2 -4zM-22 174q9 49 39 147q-8 -5 -28 -65t-11 -82zM43 203q8 22 11 36l-2 1
h-2q-1 -2 -5 -18t-3 -17q0 -2 1 -2z" />
    <glyph glyph-name="f" unicode="f" horiz-adv-x="255" 
d="M-96 -234q-7 0 -13.5 2t-11.5 5.5t-8.5 6t-7.5 6.5t-5 4q-3 2 -8 7q-35 32 -35 97q0 49 17 97q25 74 66 166q32 70 110.5 219.5t97.5 207.5q2 5 7 23q7 28 7 49l-2 22q0 9 13 9q7 0 11 -1q6 0 18 -4l2 -1q5 -1 7 -4q5 -1 8 -5q4 -1 6 -5q1 0 1 -1h1l1 -1q0 -1 2 -2.5
t2 -2.5q16 -16 23 -36q1 0 1 -2t1 -2q5 -15 5 -37q0 -10 -1 -15q-2 -20 -8 -36q-13 -43 -49 -116.5t-64 -130t-28 -71.5q0 -3 2 -5q4 -5 14 -5q71 0 147 122l17 28q9 16 19 0q11 -18 1 -33l-11 -19q-32 -56 -79.5 -99t-100.5 -43q-8 0 -12 1q7 -38 7 -65v-8q0 -16 -3 -36
q-1 -10 -5 -32q-18 -86 -69.5 -170t-92.5 -84zM-138 -35q0 2 2 4q0 3 8 21v1q7 17 34 81l1 2l1 2q51 116 132.5 273.5t92.5 181.5q10 19 19 42q2 8 2 14v1q0 -1 -1 -1q-2 0 -4 -2q-1 -1 -4 -11l-13 -26q-26 -54 -71 -142l-4 -7l-1 -2q-8 -15 -22.5 -42.5t-20.5 -40.5
l-11 -20q-64 -123 -98 -206q-8 -18 -22 -56l-21 -62q-1 -2 1 -5zM-46 104q38 80 102.5 208.5t76.5 152.5l21 44q6 12 7 19q0 3 -1 5q-2 -2 -6 -8q-128 -249 -178 -357q-11 -19 -20 -52q-2 -5 -2 -12zM4 132q1 1 10 21q111 226 152 320q-2 -1 -29.5 -55.5t-62 -125.5
t-52.5 -111q-7 -15 -9 -22v1q-2 0 -2 -2v-2l1 1q-8 -19 -8 -25zM5 142l1 2q0 2 -1 2l-1 -1v-1zM-4 124h1l1 1v2zM-7 115v2q1 1 1 4q-2 -2 -2 -3v-1q1 -1 1 -2zM-77 -168h4l1 1q4 3 7 7q47 69 71 137q8 25 12 41q0 3 2 9t2 9q4 23 4 43q0 31 -5 33q-2 0 -3 -1q-4 -6 -5 -9
q-2 -3 -4 -9q-19 -43 -26 -65q-2 -3 -4.5 -10t-3.5 -11q-1 -5 -5 -15t-5 -15q-12 -34 -41 -129q0 -2 -1 -5t-1 -4v-4q0 -3 1 -3zM-16 97l2 2q0 1 -0.5 1t-0.5 1q-1 -1 -1 -2v-2zM-21 82l-1 3l-1 -2z" />
    <glyph glyph-name="g" unicode="g" horiz-adv-x="528" 
d="M-33 -285q-80 0 -113 52q-34 52 10 115q53 75 194 118q64 20 88 28q12 24 31 72l6 13q20 48 27 76l-20 -24l-15 -17q-33 -37 -47 -52q-15 -16 -49 -46q-9 -7 -29 -19q-11 -7 -24 -7q-76 0 -90 86q-15 88 36 201q53 115 133 156q33 17 67 17q26 0 55 -12q40 -19 53 -69
l3 -14q1 -3 5 -3q2 0 3 1q9 11 24 42q14 29 10 42q-2 8 -2 11q0 8 14 10h5q25 1 53.5 -17t37.5 -49q2 -10 2 -15q2 -6 0 -14q-1 -34 -16 -68q-2 -4 -6.5 -14t-7.5 -15q-1 -2 -2.5 -6t-2.5 -6q-17 -36 -29 -65q-17 -33 -49 -101l-5 -9q-1 -2 -7.5 -14.5t-8.5 -16.5
q53 32 107.5 100.5t94.5 138.5q2 3 9 14.5t10 16.5q9 17 21 0q10 -14 5 -23l-16 -27q-60 -100 -118 -169.5t-135 -109.5l-20 -47q-118 -261 -292 -261zM239 194q-44 -111 -3 -23q17 38 47 106q1 0 1 1q7 15 44 89q6 13 16 39q2 6 2 8v2q-1 2 -1 3q-5 -2 -5 -3
q-4 -9 -47 -101l-21 -43q-4 -8 -11 -25t-11 -26q-2 -4 -5.5 -13t-5.5 -14zM41 74h1q3 0 3 1q44 29 135 153q3 4 8.5 12.5t10 15t8.5 11.5q5 6 5 15q0 3 -0.5 7t-0.5 6q-1 3 -2 3l-4 -1q-7 2 -7 6q0 2 1 3l10 18q15 27 17 48q-1 4 -1 11q0 3 -1 8.5t-1.5 9t-2 7.5t-5.5 7
q-37 0 -86 -78.5t-76.5 -161t-13.5 -95.5q1 -1 1.5 -3t0.5 -3zM262 153l6 6q22 55 56 127l12 26q1 1 2.5 4.5t2.5 5.5q8 18 13 27v1l1 2l3 7q1 3 9 26q1 3 -1 7l-4 -4l-36 -74q0 -1 -5.5 -12t-7.5 -17l-39 -90q-4 -5 -6 -15l-3 -8q0 -1 -1 -3v-2q-2 -10 -2 -14zM-4 181
l21 47q21 46 42 93.5t21 50.5h-1q-16 -15 -47.5 -85t-35.5 -106zM18 299q4 3 18.5 32.5t14.5 32.5l-1 1v1q-10 -11 -22.5 -34.5t-9.5 -32.5zM304 126q1 1 47 103t47 106q2 3 2 10q2 0 2.5 1.5t-0.5 2.5l1 1v5l-3 -3v-2q-1 0 -2 -1.5t0 -2.5q-2 -2 -3 -4q-91 -193 -91 -216z
M235 349v3l-1 -2zM18 133q1 1 1 3q0 3 18.5 45t40.5 93t24 55l1 2q1 1 1 2l1 4q-2 -4 -2 -5h-1l-1 -1q-1 0 -3 -2v-1l-1 -2l-2 -2q-6 -10 -15 -30l-2 -4l-4 -9q-4 -9 -6 -14l-3 -7q-13 -29 -23 -55q0 -3 -2 -5q0 -2 -1 -2l-3 -8q-19 -50 -19 -53l1 -1v-3zM-33 170q2 4 2 5
q1 4 2.5 13t2.5 14q-3 -3 -4.5 -7.5t-2.5 -9.5t-2 -8v-1q0 -2 2 -6zM261 145v5l-1 -1v-2t1 -2zM140 -45q2 0 2 1q3 1 16 28l27 57q17 36 23 53q-1 1 -1 3h-1l-2 -2l-54 -114l-11 -24q0 -1 1 -2zM177 -36l1 1v1q4 0 16 31q7 14 6 18q-1 -4 -11 -20q-14 -24 -13 -28q0 -1 1 -3
zM-71 -247q41 0 94.5 64t96.5 155q-10 -4 -16 -5q-169 -53 -200 -138q-16 -43 8 -68q8 -8 17 -8zM82 -141q6 2 19 20t13 27v1q-1 0 -8.5 -11t-15 -23.5t-8.5 -13.5zM101 -162q14 12 29.5 34t16.5 35q-7 -2 -26 -31.5t-20 -37.5zM155 -162q5 4 13.5 17t8.5 19v1
q-5 -4 -13.5 -17.5t-8.5 -19.5z" />
    <glyph glyph-name="h" unicode="h" horiz-adv-x="497" 
d="M4 -2q-46 -1 -68.5 22.5t-21 66.5t12 86t30.5 95q7 20 25 58q3 7 30 61q18 34 34 61q10 18 15 26l11 18q6 12 10 18l36 60l36 59q6 10 17.5 30t14.5 26q13 23 28 52q13 25 22 48q9 20 14 42q5 20 5 36l-1 18q0 9 10 9h2q45 0 68 -38q4 -6 7 -16q1 -1 1 -4q4 -11 4 -24v-8
q0 -3 -1 -4q-3 -45 -24.5 -98t-41.5 -85q-54 -91 -108 -197q-7 -14 -18.5 -39.5t-16.5 -35.5q-6 -13 -16 -37q1 2 4 5q7 9 42 53l13 14q24 27 50 48q27 25 51 38l13 7q28 14 56.5 2.5t38.5 -46t-15 -96.5q-2 -4 -6.5 -14t-7.5 -15q-9 -19 -26.5 -58t-25.5 -58
q-43 -102 -39 -127q3 -9 10 -9q12 0 33 23.5t46 61.5t46.5 72.5t42.5 71.5t26 44q5 8 10 16.5t7 11.5q9 13 18 10.5t11 -13t-1 -17.5l-16 -27q-11 -19 -38 -67.5t-47.5 -83t-47 -73t-51.5 -59.5t-47 -21h-1q-44 1 -79 43.5t-35 100.5q0 25 75 200l3.5 7t3.5 8l4 10t5 10.5
t4 8.5q-55 -41 -107.5 -117.5t-88.5 -154.5q-17 -35 -25 -57.5t-8.5 -29t1 -12t1.5 -7.5v-2q-1 -1 -1 -2q-4 -6 -18 -6zM266 798l3 3l-2 4l-1 -4v-3zM258 774q4 0 4 8q0 1 -2 3l-1 -2q-1 -3 -1 -9zM-13 226l2 2l1 2q2 5 4 11q36 94 84 178q6 11 19 33.5t19 33.5
q119 199 150 271q2 3 4 15q-5 -1 -10 -14q-40 -77 -41 -79q-9 -17 -31.5 -54.5t-26.5 -44.5q-9 -15 -26.5 -45.5t-26.5 -45.5l-51 -90q-39 -68 -59 -125q-3 -8 -7 -24.5t-5 -18.5v-2q1 -2 1 -3zM267 730l1 1q2 1 2 2t-2 3q-1 -1 -1 -2v-4zM260 719q2 0 5 3v1q1 1 1 2v3h-1
q-2 -1 -5 -9zM39 288q37 67 100 183q24 44 69 124q8 14 25.5 47t27.5 51q9 16 7 24q-2 -2 -6 -8q-106 -187 -115 -203q-3 -5 -8 -14.5t-8 -14.5q-40 -73 -66 -125q-23 -41 -26 -64zM288 678l1 1v2q-2 0 -2 -2zM280 660l2 3q0 1 -1 2zM98 316q19 27 33 62q13 26 33 62
q96 181 114 217q-2 -1 -118 -211q-3 -6 -8 -15l-3 -6q-6 -9 -28 -55t-23 -54zM179 123l3 5q8 32 14 48q0 1 1 2q24 62 38 93l3 6q5 12 17 36l27 54l12 29l1 2l3 8q2 6 2 8q0 3 -1 5l-2 -1q-2 -1 -3 -2q-2 -6 -8 -18q-4 -10 -26 -56l-6.5 -13t-6.5 -14q-3 -6 -9 -18.5
t-8 -16.5q-5 -11 -14 -31.5t-12 -27.5q-3 -9 -11 -27q-2 -5 -16 -64q-1 -2 1 -6q1 0 1 -1zM216 153l6 6q17 42 68 153q3 5 5 10l6.5 13t6.5 14v1l1 2l3 7q1 3 9 26q1 3 -1 7l-4 -4l-36 -74q-3 -7 -22.5 -51t-29.5 -68q-1 -2 -2 -4.5t-2 -5.5t-2 -5l-3 -8q0 -1 -1 -3v-2
q-2 -10 -2 -14zM258 126q4 3 52 113.5t47 115.5q-6 -6 -52.5 -109.5t-46.5 -119.5zM89 298l1 4l-2 -2v-1zM90 275q1 1 2 4t2.5 5.5t2.5 4.5l-2 -2q-1 -2 -2.5 -6t-2.5 -6zM29 281v2q0 2 1 3q-3 0 -3 -3zM82 280v1l1 1l-1 1v1v-1l-1 -1q0 -1 1 -2zM215 145v5l-1 -1v-2t1 -2z
" />
    <glyph glyph-name="i" unicode="i" horiz-adv-x="260" 
d="M185 527v5q1 2 2.5 7t2.5 7q-8 -6 -10 -7q-8 -5 -15 -5q-5 -1 -8.5 3t-2.5 10l4 15v3l-1 -1h-1q-2 -1 -4.5 -5t-4 -5t-6.5 1q-4 2 1 16v2q-1 2 -1 3l-6 -4q-5 -3 -7 -1q-3 1 -3 4q0 15 2 19q8 35 28 75q21 42 23 45q13 22 30 17q2 -2 12.5 -2h12.5q6 1 6 -6
q-8 -18 -7 -21l8 8q12 13 18 11l4 -4l6 -8l3 -6q18 -15 2 -50l-30 -54l-23 -44q-10 -18 -30 -27q-2 -1 -5 -1zM166 640q1 1 3.5 2.5t3.5 2.5l29 56l1 3q0 2 -1 2q0 1 -2 1l-8 -9q-5 -9 -13.5 -29t-12.5 -29zM225 697q4 -1 6 4q-5 0 -6 -4zM164 631q1 1 1 3l-1 2v2
q0 -1 -2 -5q2 -1 2 -2zM159 566h2v1q1 0 0 1q0 1 -1 1v-1zM191 548l2 1q1 1 1 2zM31 -2q-42 -2 -76.5 44.5t-34.5 99.5q0 20 8 49.5t19.5 58t26.5 61t27 54.5t22.5 42.5t11.5 21.5q12 26 11 38q-1 2 -1 4q0 1 -1.5 5t-1.5 6q0 10 17 10h2q30 1 61.5 -23t32.5 -63v-9
q-3 -35 -17 -68q-1 -2 -13 -29q-40 -86 -52 -116q-5 -12 -10 -23.5t-11.5 -28.5t-10.5 -30.5t-6.5 -26.5t-0.5 -20t9 -7t19 11t27.5 31.5t30 42t33.5 52t31.5 51t29 49t21.5 36.5l19 31q10 16 22 0q10 -13 4 -23l-16 -27q-106 -181 -152.5 -241.5t-80.5 -62.5zM-54 123l3 5
q2 5 6.5 22t7.5 26q21 54 42 101q7 15 22 45t22 45q3 7 8.5 20t8.5 19l2 8q0 1 -2 5l-2 -1q-2 -1 -3 -2l-3 -8q-2 -6 -4 -8v-2q-19 -42 -40 -83l-3.5 -7t-3.5 -8q-8 -16 -36 -79q-1 -5 -4.5 -14t-5.5 -13q-4 -11 -17 -64q0 -4 1 -6q1 0 1 -1zM-18 153q4 4 5 6q24 58 69 153
l4 10q5 9 13 27l2 3l3 7q7 20 8 26v7q-4 -2 -5 -4q-20 -41 -35 -74q-31 -66 -53 -119q-1 -2 -2 -4.5t-2 -5.5t-2 -5l-3 -8q0 -4 -1 -5q-1 -5 -1 -14zM120 348l3 2l-1 2v3q-2 -2 -2 -3q-1 -1 0 -4zM71 239q5 3 6 4q2 4 3.5 8t4 9t3.5 8l12 26q2 4 2 5q1 1 1 3q3 5 7.5 15
t6.5 15q0 2 1 3q1 3 1 12l-5 -5l-42 -93q-1 -3 -1 -9v-1zM38 163l2 1q1 0 1 1l30 66v7h-1l-4 -4q-15 -33 -26 -59q-2 -4 -2 -7v-5zM33 152q6 1 4 10l-2 -2l-2 -4v-4zM-20 145l1 5q-2 -2 -2 -3q1 -1 1 -2zM24 126q10 9 9 24q-4 -4 -5 -7l-3 -7q-1 -3 -1 -10z" />
    <glyph glyph-name="j" unicode="j" horiz-adv-x="285" 
d="M319 705q15 -15 -1 -50q-5 -11 -16.5 -30t-14.5 -24q-23 -40 -25 -43q-14 -19 -31 -25q-1 -1 -5 -1q-2 2 0 4l6 15q-6 -6 -11 -7q-4 -3 -14 -5q-6 0 -9 4t-2 10l4 18q-1 -1 -2 -1q-2 -1 -4.5 -4.5t-4.5 -4.5t-6 0q-3 3 1 16q0 3 -1 5l-6 -3q-9 -5 -9 3q0 15 2 18
q12 39 31 75q16 30 24 44q15 21 31 15q3 -1 25 -1q6 0 5 -7q0 -3 -4.5 -9.5t-3.5 -11.5q7 5 9 8q10 11 15.5 10.5t12.5 -12.5q3 -5 4 -6zM249 705q2 2 2 3l-1 2l-2 1l-8 -8l-29 -58l6 5zM273 700q4 0 5 4q-5 1 -5 -4zM209 636l1 7q0 -1 -1.5 -2.5t-1.5 -2.5zM201 572
q4 -2 3 2zM235 554v2l-1 -1v-2q0 1 1 1zM279 352q11 18 23 1q9 -14 3 -24l-16 -27q-43 -73 -115 -147t-143 -122q-25 -57 -57 -109t-74 -101t-95 -78.5t-108 -29.5q-80 0 -113 52q-34 52 10 115q53 75 194 118q39 11 86 27q9 17 46 98t42 92q38 78 42 85q0 -1 -1 -1
q-14 -21 -25 -2q-8 14 -2 23q12 18 30 50.5t29 49t27.5 35.5t35 27t42.5 8q36 0 74.5 -17.5t37.5 -33.5l-1 -1v-2q-1 0 -1 -1q-5 -6 -17 -12t-24 -19l-3 -3q-3 -3 -15 -19q-35 -50 -67 -125q-23 -54 -67 -162q44 28 107.5 98.5t95.5 125.5q4 6 9.5 15.5t9.5 15.5zM-14 112
q68 153 127 260q6 15 10 20q-6 -2 -16 -17q-17 -22 -134 -264l-83 -171h2q2 0 10 9.5t10 13.5q23 36 74 149zM77 375l-4 -4h1l3 3v1zM-128 -36l18 24l9 18q46 91 51 103q0 1 1 2q24 56 54.5 120.5t48.5 100.5l18 37v1q-6 -5 -16 -21.5t-22 -39t-21.5 -42t-18.5 -38.5l-9 -19
q-16 -34 -46 -102q-33 -75 -65 -133q-2 -3 -2 -11zM142 342q-2 0 -4 -3q1 0 1 1zM137 336l-3 -3h1l2 2v1zM133 331q0 -1 -0.5 -4t-1.5 -4q1 0 1 1q1 1 1 5v2zM124 315q-4 -2 -2 -9v2q0 1 1 3t1 3v1zM-60 196v-2h-1zM19 69l1 4q-2 -1 -2 -6zM11 50q2 4 1 5v2q0 -2 -2 -8z
M7 41q0 2 2 6q-3 -1 -3 -8q1 1 1 2zM-39 -49q5 4 23 38.5t17 41.5v1q-3 -2 -22.5 -39t-18.5 -42h1zM-341 -247q39 0 90.5 59t93.5 145q3 5 7 15l-8 -3q-6 -2 -8 -2q-169 -53 -200 -138q-16 -43 8 -68q8 -8 17 -8zM-188 -141q6 2 19 20t13 27v1q-1 0 -8.5 -11t-15 -23.5
t-8.5 -13.5zM-169 -162q14 12 29.5 34t16.5 35q-7 -2 -26 -31.5t-20 -37.5zM-93 -126v1q-5 -4 -13.5 -17.5t-8.5 -19.5q5 4 13.5 17t8.5 19z" />
    <glyph glyph-name="k" unicode="k" horiz-adv-x="480" 
d="M-5 -2q-46 -1 -68.5 21t-20.5 63t13.5 86.5t37.5 103.5t48 101t49 91l16 28q19 33 57.5 97t56 95t39 74t28 71.5t1.5 50.5q-1 4 2.5 7t7.5 3q33 1 57 -22t25 -57q0 -28 -11 -68q-14 -50 -56 -130q-62 -120 -86 -162q-10 -15 -27 -48q-6 -10 -40 -76q-3 -8 -8 -17l-12 -26
l-7 -14t-7 -16q1 0 1 1q16 22 23 33q57 86 145 166q1 1 16 13q44 28 90 7t38 -62q-5 -28 -17 -48q-34 -57 -69 -90q-19 -19 -36 -32q-34 -27 -77 -45q-3 -1 -11.5 -4t-12.5 -6q-6 -4 -8 -6q0 -15 1 -23q8 -53 17.5 -74t31.5 -21q39 0 105 77t130 184l16 27q13 24 24 2
q8 -16 3 -24q-4 -5 -9 -15t-7 -12q-32 -54 -51.5 -84.5t-52.5 -77.5t-57.5 -72.5t-55 -45.5t-57.5 -20q-72 0 -108 118l-6 18q-5 -1 -12 -4q-29 -17 -52 -55q-12 -21 -19 -36q-3 -23 -3 -35v-4l1 -2q-5 -4 -16 -4zM264 798l3 3l-2 4l-1 -4v-3zM256 774q2 2 4 8q1 0 0 1l-2 2
l-1 -2q-1 -3 -1 -9zM-13 226l2 2l1 2q2 5 4 11q36 94 84 178q6 11 19 33.5t19 33.5q119 199 150 271q2 3 4 15q-5 -1 -10 -14q-40 -77 -41 -79q-9 -17 -31.5 -54.5t-26.5 -44.5q-9 -15 -26.5 -45.5t-26.5 -45.5l-51 -90q-39 -68 -59 -125q-3 -8 -7 -24.5t-5 -18.5v-2
q1 -2 1 -3zM265 730q2 2 2 3q1 1 -1 3q-1 -1 -1 -2v-4zM258 719q4 1 6 9q-4 -2 -6 -9zM39 288q37 67 100 183q24 44 69 124q8 14 25.5 47t27.5 51q9 16 7 24q-2 -2 -6 -8q-106 -187 -115 -203q-3 -5 -8 -14.5t-8 -14.5q-40 -73 -66 -125q-23 -41 -26 -64zM286 678q0 1 1 1
q0 2 -1 2l-1 -1zM278 660l2 3q0 1 -1 2zM96 316q19 27 33 62l29 55q72 132 118 224q-8 -4 -121 -217q-8 -14 -8 -15q-6 -9 -28 -55t-23 -54zM155 236q4 -2 10 2l4 3q34 19 60 43l3 2l7 7l5 5q35 36 56 88l3 10q0 3 -1 3q-2 3 -4 1l-20 -14q-1 -1 -2.5 -2t-2.5 -2.5t-2 -2.5
l-8 -6q-31 -28 -72 -81q-9 -11 -25 -33q-2 -3 -5 -7t-5 -7q-5 -7 -1 -9zM317 379q1 1 2 1v3l-2 -1v-3zM308 360l3 3v4q-2 -2 -2 -3q-1 -1 -1 -4zM331 362l1 1v2zM302 350q2 4 5 8q-5 -1 -5 -8zM323 350l6 8q-4 -1 -6 -8zM317 338q5 2 5 10q-5 -2 -5 -10zM295 339q0 1 1 1
q3 6 4 7q-3 -1 -5 -7v-1zM311 329l4 8q-4 -2 -4 -8zM289 330q2 2 4 6q-1 -1 -4 -6zM87 298l1 4l-2 -2v-1zM27 281v2q0 2 1 3q-1 0 -3 -2q0 -1 2 -3z" />
    <glyph glyph-name="l" unicode="l" horiz-adv-x="280" 
d="M24 7q-22 -1 -43 12q-78 62 -40 199q23 84 96 213q26 46 83 141t81 138q64 120 54 170q-1 4 1.5 7t7.5 3q35 1 60 -25q15 -16 20 -35q0 -3 2 -9q0 -7 1 -10q0 -28 -11 -68q-14 -50 -56 -130q-2 -2 -4 -8q-62 -117 -83 -154q-122 -212 -137 -331q-4 -43 7 -43q19 0 60 50
t71.5 97t60.5 97l16 26q15 23 26 9t3 -27l-18 -30q-9 -15 -28.5 -46t-29 -47t-27.5 -43.5t-29 -42t-27 -35.5t-29 -32t-28.5 -23t-30 -17t-29.5 -6zM267 798l2 3v1l-1 1v2q0 -1 -1 -2t-1 -2t1 -2v-1zM259 774l4 8q-2 2 -2 3l-2 -2v-9zM-13 226l2 2l1 2q2 5 4 11
q36 94 84 178q6 11 19 33.5t19 33.5q119 199 150 271q2 3 4 15q-5 -1 -10 -14q-40 -77 -41 -79q-9 -17 -31.5 -54.5t-26.5 -44.5q-9 -15 -26.5 -45.5t-26.5 -45.5l-51 -90q-39 -68 -59 -125q-3 -8 -7 -24.5t-5 -18.5v-2q1 -2 1 -3zM267 730l3 3q1 1 0 2l-1 1q-1 0 -1 -2
t-1 -4zM261 719q5 1 5 9q-5 -2 -5 -9zM39 288q37 67 100 183q24 44 69 124q8 14 25.5 47t27.5 51q9 16 7 24q-2 -2 -6 -8q-106 -187 -115 -203q-3 -5 -8 -14.5t-8 -14.5q-40 -73 -66 -125q-23 -41 -26 -64zM288 678h1l1 1l-1 2l-1 -1v-2zM281 661l2 2q-1 1 -1 2zM99 316
q17 24 32 62q111 204 148 279q-3 -1 -64.5 -113.5t-64.5 -118.5q-6 -11 -28.5 -56t-22.5 -53zM90 298q0 3 1 4l-2 -2q0 -1 1 -2zM29 281q0 1 0.5 1t0.5 1v3q-2 0 -2 -2v-1q1 -1 1 -2zM82 280q1 1 1 2v2l-1 -1v-1v-2z" />
    <glyph glyph-name="m" unicode="m" horiz-adv-x="699" 
d="M-16 -2q-32 -1 -64.5 26t-29.5 70q3 31 24.5 83.5t117.5 251.5q1 2 2.5 5.5t1.5 4.5l2 3v2l1 2q1 1 1 2v2q5 11 2 21q0 1 -1.5 5t-1.5 6q0 7 8 9h2q0 1 1 1h8q11 1 28 -4q27 -9 43 -28l2 -2l2 -2q22 -27 19 -59v-2q0 -3 -1 -5q-3 -30 -13 -54q31 41 75 94q14 16 32 42
q9 12 27 12q35 0 54 -26q10 -13 12 -33q4 -28 -9 -66q-4 -11 -9 -23.5t-11.5 -28t-9.5 -23.5l-9 -22l1 -4q2 0 3 1l9 12l31 45q2 3 6.5 8.5t6.5 8.5q18 24 27 35q35 44 81 97q18 21 40 24q14 2 26 -1q2 0 10 -2q32 -9 55 -47q8 -13 8 -32q0 -7 -1 -10q-2 -27 -8 -44l-3 -9
q-2 -8 -6 -15q-11 -24 -33 -72.5t-32 -72.5q-10 -22 -32 -82q-2 -5 -4 -12.5t-3.5 -16t0.5 -15t7 -6.5q7 0 23.5 19t41 54t44.5 65t48 73t38 58q4 6 19 31q13 22 24 2q8 -15 2 -25l-16 -27q-29 -48 -40.5 -66t-40.5 -64t-46 -68.5t-39.5 -51.5t-38.5 -41.5t-28 -12.5
q-36 0 -70.5 32t-41.5 71q-3 20 0 41l6 29q1 4 3.5 11.5l4.5 13.5t4 11q36 94 70 152v7l-5 -3l-3 -3q-3 -4 -9 -10q-3 -6 -11 -16q-40 -56 -52 -75q-33 -55 -37 -62q-19 -31 -55 -95q-11 -16 -17 -33q-8 -19 -29 -20t-42 14t-29 36q-5 12 -4 21q0 22 2 33q15 91 38 137
q10 21 18 47v5q-1 0 -3 -1t-3 -1q-37 -34 -103 -116q-29 -37 -67.5 -112.5t-34.5 -92.5q0 -1 1.5 -5t1.5 -6t-1 -4q-4 -6 -18 -6zM-53 123q0 1 1.5 2.5t1.5 2.5q2 5 6.5 22t7.5 26h1q26 68 41 101q7 15 22 45t22 45q3 7 8.5 20t8.5 19l2 8l-1 2v3l-5 -3q-19 -43 -48 -101
q-7 -14 -42 -94q-8 -18 -11 -27q-4 -11 -17 -64q0 -1 0.5 -3t0.5 -3q1 0 1 -1zM383 123q2 4 2 5q1 3 4 13q6 24 11 35q17 44 41 101q7 15 22 45t22 45q12 26 17 39q2 6 2 8v2q-1 2 -1 3q-5 -2 -5 -3l-3 -8q-2 -3 -4 -9l-1 -1q-7 -16 -21.5 -46t-17.5 -37q-5 -8 -8 -16
q-23 -46 -46 -105q-5 -12 -10 -35t-7 -29v-1v-2q1 -2 1 -3q1 0 2 -1zM263 408q0 1 1.5 2.5t1.5 2.5q1 0 0 1l-2 2v-1l-1 -1v-6zM284 398l3 5q1 1 0 2q-1 2 -1 3q-2 -2 -2 -4v-6zM177 155v9q27 75 50 142q7 19 14 39.5t13 36.5t7 20l2 5q-1 0 -1 -1q-6 -6 -33 -74.5
t-43 -120.5q-15 -46 -10 -48q0 -1 -1 -2t-1 -2t1 -2zM213 212l37 91l6 16q10 25 11 28q2 6 4 9q13 38 12 40q-6 0 -47 -110q-6 -14 -12 -33q0 -1 -0.5 -1t-0.5 -1q-5 -13 -9 -28q-1 -5 -1 -11zM-21 153q4 4 5 6q24 58 69 153q2 5 5 10q4 8 5 13q3 4 7 14l2 3l3 7l9 26l-1 7
q-4 -2 -5 -4q-20 -41 -35 -74q-31 -66 -53 -119q-1 -2 -2 -4.5t-2 -5.5t-2 -5q-2 -6 -2 -8q0 -1 -0.5 -2.5t-1.5 -2.5q0 -2 -0.5 -5.5t-0.5 -5.5v-3zM420 153l6 6q9 23 50 115q6 13 18.5 39t18.5 39l12 33q1 1 0 3.5t-1 3.5q-4 -2 -5 -4q-11 -24 -35 -74q-7 -16 -21.5 -48
t-21.5 -48q-5 -12 -10 -23q-11 -29 -11 -42zM309 358v5q0 -1 -1 -3q1 -1 1 -2zM117 348l3 2v2q-1 2 -1 3q-2 -2 -2 -3v-4zM558 348l3 2q0 3 -1 5q0 -1 -1 -1l-1 -2v-4zM69 239q1 1 2 1t2 1l2 4q4 7 10 23l12 26q2 4 3 5q0 2 1 3q4 11 14 33q1 1 1 12q-4 -4 -4 -5
q-15 -31 -43 -93v-10zM510 239q5 3 5 4q24 51 41 92q1 1 1 12q-1 -1 -2 -2.5t-2 -2.5l-42 -93q-1 -2 -1 -8v-2zM302 337l2 3q0 1 -2 3v-6zM273 272q3 1 3 7q1 -1 3 1l1 1v1v2q1 2 1 6q2 0 3 1q0 1 1 1q1 2 -1 4l2 2q1 0 1 1q2 2 2 3q3 1 0 4q2 2 2 4q2 0 3 1q0 2 1 3l-1 1v2
q2 2 2 6q2 2 2 4l1 1q1 1 1 3.5t1 3.5q-4 0 -4 -5q-1 1 -2 0.5t-1 -1.5l-2 -3q-2 -4 2 -4q0 -1 -0.5 -2.5t-0.5 -2.5q-3 0 -3 -2q0 -1 -1 -1q0 -3 1 -3l-2 -5q-1 0 -2 -1q-2 -2 -3 -4q-1 -1 1 -3q0 -1 -1 -2h-2l-1 -2q-1 -2 1 -4q-2 -4 -2 -5q-3 1 -4 -1v-2q-1 -1 -0.5 -2
t1.5 -1zM271 264v3q0 1 1 3l-3 -3zM259 234l2 2q0 1 -2 3v-5zM35 163l4 2q20 44 29 66q1 1 1 3v4q-5 -3 -6 -4q-3 -7 -9.5 -21t-9.5 -21q-1 -3 -3.5 -8.5t-3.5 -8.5q-1 -2 -1.5 -6.5t-0.5 -5.5zM477 163l3 2l24 53l6 13v7h-2l-4 -4l-21 -47q-1 -2 -2.5 -6t-2.5 -6t-1 -7v-5z
M257 225v3l1 1v2q-1 0 -3 -2zM250 206v2q1 1 1 2q-1 1 -1 2v-6zM211 204l1 1v2v3q-1 0 -3 -2zM246 200q2 2 2 4l-2 -2v-2zM30 152q5 1 5 10q-5 -2 -5 -10zM472 152q4 1 4 10l-3 -2l-1 -1v-2v-5zM-23 145l1 5l-2 -3q1 -1 1 -2zM21 126q11 9 9 24q-9 -10 -9 -24zM418 145l1 5
q-1 -1 -1 -3v-2zM462 126q10 9 9 24q-9 -10 -9 -24zM460 118l1 5q-1 -1 -1 -3v-2z" />
    <glyph glyph-name="n" unicode="n" horiz-adv-x="478" 
d="M-17 -2q-32 -1 -64.5 26t-29.5 70q3 34 17 67q20 43 38 83t30.5 66t24 50t18 38t12.5 26t8.5 18.5t4 12t1 9t-1.5 7.5q0 1 -1.5 5t-1.5 6l2 5q3 6 16.5 6.5t30.5 -6t32.5 -18.5t24.5 -34t6 -50l-28 -69q33 41 38 46q8 10 13 14q22 25 49 48q27 24 48 36q2 2 4 2
q27 17 39 15h4q15 -2 22 -5q1 0 7 -2q8 -4 12 -7q3 -3 5 -4l6 -6q15 -18 15 -44q1 -21 -9 -57l-9 -23q-2 -6 -7 -17t-6 -12q-26 -56 -52 -116q-24 -54 -34.5 -93t0.5 -43q6 0 23.5 21.5t41 58t45 70.5t45 72.5t31.5 50.5q3 5 9 15.5t8 12.5q9 14 17.5 11t11 -13.5
t-0.5 -17.5l-16 -27q-8 -13 -29.5 -50t-34 -58t-34 -55t-36 -54t-32 -41t-31.5 -31t-25 -10q-56 0 -89 56t-18 107q12 40 70 176l20 44q-2 -2 -8 -6t-9 -7q-42 -36 -87 -94q-51 -66 -84 -129l-4 -10q-20 -40 -36 -68q-5 -8 -5 -11q-14 -28 -11 -42q0 -1 1.5 -5t1.5 -6t-1 -4
q-4 -6 -18 -6zM172 123q0 1 1.5 2.5t1.5 2.5q2 5 6.5 22t7.5 26q1 1 1 2q12 31 38 93l3 6q7 15 22 45t22 45q3 5 7.5 15.5t6.5 15.5l3 8l2 8v2q-1 2 -1 3l-5 -3q-3 -4 -4 -8q-2 -6 -4 -8v-2l-27 -56q-8 -18 -13 -27l-7 -14l-9 -21h-1q-9 -19 -25 -59q-8 -18 -11 -27
q-4 -11 -17 -64q0 -1 0.5 -3t0.5 -3q1 0 1 -1zM210 153q4 4 5 6q24 58 69 153l4 10q5 9 13 27l2 3l3 7l9 26l-1 7q-4 -2 -5 -4q-20 -41 -35 -74q-31 -66 -53 -119q-1 -2 -2 -4.5t-2 -5.5t-2 -5q-2 -6 -2 -8q0 -1 -0.5 -2.5t-1.5 -2.5q-1 -5 -1 -14zM-20 72l2 1q2 1 3 1
q2 5 11 26q2 6 8 18l28 57l21 45q4 9 22 49q3 9 11 27v2q6 14 12 46q6 21 2 23q-3 -5 -8 -23t-9 -29v-1l-21 -53l-21 -47l-24 -51q-2 -4 -3 -5l-17 -35v-1l-5 -9l-11 -29q-2 -4 -2 -7q-1 -3 1 -5zM31 340q10 10 10 25q-12 -9 -10 -25zM348 348l3 2l-1 2v3q-2 -2 -2 -3v-4z
M300 239l2 1l3 3q8 16 11 25l5 10l7 16q2 4 2 5h1v3q5 9 13 29l2 4q1 3 1 12l-5 -5q-12 -28 -38 -84q-2 -6 -4 -9v-9v-1zM64 340v1q1 1 1 2q0 2 -1 2v-5zM27 329q4 1 4 10q-6 -2 -4 -10zM-41 98l4 4q29 61 35 74q1 1 1 2q18 39 52 117l6 15l3 9v2q1 2 1 3q1 3 1 10q1 1 1 4
q-5 -6 -6 -7q-18 -44 -49 -110q-1 -2 -20 -43q0 -2 -2 -5t-2 -4v-1q-2 -3 -6 -11q-1 -3 -3.5 -8l-3.5 -7q0 -1 -1 -2v-2q-3 -3 -3 -7q-2 -5 -5 -14t-4 -11t1 -8zM-55 144q4 2 5 4l42 94q1 3 1 10q4 2 5 4q3 5 13 28q1 2 6 13.5t8 17.5q1 4 1 12q-3 0 -3 -2l-27 -58l-3 -7v-8
q-1 -1 -3 -2t-3 -2q-1 -2 -5 -11t-6 -14l-12 -27q-1 -1 -1 -2q-1 -2 -1 -3q-1 -1 -1 -2l-15 -33q-1 -4 -1 -12zM266 163l2 1q1 0 1 1q17 33 30 66v7q-4 -2 -5 -4q-15 -33 -26 -59q0 -1 -1 -3.5t-1 -3.5v-5zM261 152q5 1 5 10l-3 -2l-2 -4v-4zM208 145l1 5l-2 -3q1 -1 1 -2z
M252 126q10 9 9 24l-5 -6l-3 -9q-1 -3 -1 -9zM-78 136l2 2q1 2 1 4q-3 0 -3 -2v-4z" />
    <glyph glyph-name="o" unicode="o" horiz-adv-x="413" 
d="M55 -17q-9 0 -14 1q-3 0 -4 1q-7 1 -19 5q-8 3 -13 7q-61 35 -74.5 102t11 136.5t61.5 129t73 89.5q58 48 130 52q22 0 33 -2q14 -2 19 -4q6 -2 18 -8l3 -2l5 -3q14 -8 25 -24l5 -9q3 -7 7 -21l3 -14v-7q1 -4 1 -13q0 -22 -6 -43q0 -1 -1 -2v-2q-14 -52 -28 -88t-22 -46
l-7 -10q36 0 64.5 29t62.5 84l19 31q9 16 22 -2q9 -12 5 -19l-17 -29q-83 -141 -161 -141q0 -3 -2 -7q-6 -25 -18 -47q-10 -21 -24 -39q-21 -28 -41 -43l-4 -3q-19 -15 -46 -26l-6 -3q-29 -11 -60 -10zM45 40q8 -31 57 -4t77 74q5 9 8 18q7 15 6 23t-16 16q-6 4 -11.5 10
t-8.5 13t1 13t16 8q10 2 18.5 10t17 27t13 31.5t14.5 43.5q5 14 11 42q4 19 4 44l-1 5q-1 5 -2 7l-3 11q0 1 -0.5 2.5t-1.5 2.5q-3 8 -11 3l-7 -3q-8 -6 -11 -9q-11 -10 -31 -30l-15 -17q-61 -75 -106 -176q-24 -57 -25 -111v-25l3 -16q2 -8 4 -13zM264 365q0 1 0.5 2.5
t0.5 2.5v2q-2 -2 -2 -4l1 -1v-2zM281 360v3l-1 -2zM5 313l2 2q0 1 -0.5 1t-0.5 1q0 -3 -1 -4zM-1 302l5 8q-5 -2 -5 -8zM-4 294l1 4l-2 -2q1 -1 1 -2zM26 291q4 1 4 7zM20 280q5 1 5 9zM14 263q7 5 5 15q-5 -5 -5 -15zM-18 263l3 3v2h-1l-2 -1v-4zM9 252q5 1 5 10
q-7 -1 -5 -10zM-51 122q1 2 1 5q4 41 28 119l3 15q-3 -2 -11 -17q-14 -39 -20 -70q-4 -20 -2 -46q0 -1 0.5 -3t0.5 -3zM-19 164q3 0 4 2t1 4.5v3.5q16 48 20 62q2 5 2 15q0 -1 -2 -1q-1 0 -2 -1q-18 -36 -24 -75q-1 -2 0 -5.5t1 -4.5zM47 219l2 3l-1 1v2q-1 -1 -1 -3v-3z
M35 192q5 3 5 14q-5 -3 -5 -14zM29 176q5 2 5 14q-5 -2 -5 -14zM26 159q0 1 1 1l1 2q0 2 0.5 6t0.5 6q-5 -2 -5 -11q0 -2 2 -4z" />
    <glyph glyph-name="p" unicode="p" horiz-adv-x="487" 
d="M-141 -340q-43 -1 -67.5 17.5t-29 53t0.5 75t22 91t34.5 92.5t39.5 87l13 28q16 33 49 96.5t48 94.5t33 74t22.5 71.5t-0.5 50.5q-3 9 8 11q31 1 55 -22.5t26 -57.5q1 -15 0 -28q-4 -26 -7 -39q-9 -47 -27 -88l13 25q39 75 77 127q15 22 36 43q22 22 59 24q6 0 8 -1
q12 0 25 -3q23 -5 40.5 -24.5t22.5 -43.5q0 -2 0.5 -4t0.5 -4q2 -10 2 -16q4 -44 -5 -89q-13 -73 -36.5 -125t-68.5 -101q13 0 28 9t33.5 29.5t33 37t35.5 48l30 45t29 45.5l20 32l17 28q13 23 25 5q9 -15 3 -25l-16 -27q-83 -145 -125 -197q-95 -116 -218 -116
q-94 0 -168 59l-9 -20q-1 -3 -3.5 -7t-3.5 -7q-31 -67 -51.5 -120.5t-30.5 -85t-13.5 -58.5t-2.5 -37t4 -25t3 -19t1 -6q-4 -3 -15 -3zM124 54q16 13 19 17q6 6 20 24q33 46 60 126q19 55 30 139l3 21v2q2 18 2 27q0 4 -4 8q-5 2 -8 -1q-8 -5 -15 -12q-3 -1 -13 -12
q-13 -13 -24.5 -29.5t-25 -41t-22.5 -41t-24.5 -51.5t-22 -50t-25 -59.5t-24.5 -58.5q-7 -17 13 -24q27 -9 61 16zM39 410q2 2 2 3l-1 4q-1 -2 -1 -5v-2zM279 385q6 2 4 11l-3 12q0 -2 -1 -5t-1 -4q0 -3 0.5 -7t0.5 -7zM33 385l3 8q0 1 -2 3q-1 -1 -1 -2v-9zM276 356
q1 1 2 2.5t2 2.5t1 2q0 7 -2 21q-5 -8 -3 -28zM-191 -162q2 2 3 4l3 10q29 94 70 178q5 11 32 68q25 53 50 103.5t36 72.5t22 46.5t19 47.5l3 15q-4 -1 -9 -14q-6 -13 -17 -39.5t-17 -39.5q-7 -17 -26 -53.5t-23 -44.5l-45 -92l-44 -89q-30 -61 -49 -126l-9 -42
q-1 -1 0 -2.5t1 -2.5zM302 344q6 4 2 14l-1 2l-2 -1q1 -5 1 -15zM274 332q6 5 2 22q-6 -6 -2 -22zM43 342l2 2q1 2 -1 4v-1q-1 -1 -1 -2v-3zM298 320q4 3 5 6t0 8.5t-1 6.5q-6 -4 -4 -21zM38 330q4 1 4 10q-4 -2 -4 -10zM266 292q9 15 7 38l-2 -1q-1 0 -1 -1q-5 -31 -4 -36z
M-142 -100q31 66 85 183q9 20 29 61t30 63q30 64 44 97q7 19 6 25q-5 -7 -5 -8q-7 -14 -42.5 -89t-55.5 -114q-3 -5 -7.5 -15t-6.5 -15q-13 -26 -56 -124q-20 -44 -21 -64zM282 250h2q17 35 14 69l-2 -1q-13 -48 -14 -68zM336 298l3 5l-1 2v3q-2 -2 -2 -4v-6zM333 279
q4 5 2 15q-2 -10 -2 -15zM65 289q1 1 1 2v2q-1 -1 -1 -2v-2zM262 274q5 2 3 16q-5 -4 -3 -16zM59 272l2 2l-1 1v1zM328 262q3 2 3 14q-3 -2 -3 -14zM258 256q5 3 3 16q-5 -4 -3 -16zM-95 -73q7 9 28 63l25 55q0 1 1 2q3 6 9 20.5t10 22.5q1 3 14 31t20 43q10 24 22 50v1
l23 54q-1 -1 -40 -84l-12 -25v-1h-1q-1 -1 -2.5 -5t-2.5 -6l-18 -39q-5 -12 -13.5 -29.5t-10.5 -21.5l-3 -7l-6 -14q-4 -7 -23.5 -54t-19.5 -56zM327 254v6q-2 -2 -2 -3t2 -3zM256 247v1l1 2v4q-2 -2 -2 -3q-1 -1 1 -4zM278 232q6 4 4 11q0 4 -1 6q-5 -4 -3 -16v-1zM274 222
l3 8q-4 -1 -4 -7zM246 218l1 2h-1v-2zM-8 74q11 10 16 21q1 3 34 77q8 18 13 42zM-103 -91q1 2 1 5v-1q-1 -1 -1 -2v-2zM-158 -108v6q0 -1 -2 -3z" />
    <glyph glyph-name="q" unicode="q" horiz-adv-x="505" 
d="M205 -311q-48 -28 -93 5q-6 4 -16 12q-30 22 -33 59v29q-2 30 11 83q10 44 46 128l36 76l9 18q20 40 31 60l14 24q0 1 3.5 6t5.5 9t1 6q-1 -3 -10 -15q-2 -4 -8 -12l-31 -36l-15 -15q-8 -10 -26 -30q-16 -16 -50 -46q-9 -7 -29 -19q-11 -7 -24 -7q-76 0 -90 86
q-15 88 36 201q53 115 133 156q33 17 67 17q27 0 55 -12q34 -16 48 -52q2 -5 4 -13q1 -5 4 -18q2 -3 5 -3q2 0 3 1q5 7 5 8q20 49 17 78q0 2 -0.5 6t-0.5 5q-1 4 2 7.5t8 3.5h3q32 0 55 -23.5t24 -56.5q0 -3 -0.5 -9.5t-0.5 -10.5t-6 -32q-2 -5 -4 -15q-2 -8 -4 -12
q-6 -20 -15 -40q-9 -22 -37 -78q-55 -107 -58 -110q-31 -71 -29 -83q8 -5 22 4t33 32t37 46.5t41.5 60t37.5 58.5t34 55.5t24 39.5l17 27q7 10 13.5 10.5t10 -5.5t5.5 -12.5t-1 -11.5l-18 -30q-8 -12 -39.5 -66.5t-54 -90t-54 -80t-59.5 -67.5t-50 -23q-1 1 -2 1
q0 -5 5.5 -19t14.5 -40.5t15 -52.5q12 -51 -14 -100.5t-64 -71.5zM42 74h2q2 0 3 1q44 30 134 153l27 39q5 7 5 18t-6 12h-1q-7 2 -7 6q0 2 1 3l10 18q15 27 17 48q-1 4 -1 11q0 3 -1 8.5t-1.5 9t-2 7.5t-5.5 7q-37 0 -86 -78.5t-76.5 -161t-13.5 -95.5q1 -1 1.5 -3t0.5 -3z
M325 403q2 2 2 3q0 3 -1 4l-1 -4v-3zM317 378q1 1 1.5 2.5t1.5 3t1 2.5q1 1 -2 4q-1 -1 -1 -3q-1 -3 -1 -9zM84 -178l2 4l3 11q22 80 68 179q6 16 17 36q2 4 6.5 15t7.5 17q23 50 48.5 103.5t36 74.5t21 46t18.5 48q1 2 1.5 6t0.5 6q2 6 2 8q-1 0 -46 -98.5t-45 -99.5
l-42 -87q0 -1 -0.5 -1t-0.5 -1v-1l-1 -2q-2 -2 -2 -4v3q0 -1 -2 -3l1 -1q-1 -2 -3.5 -8t-4.5 -9q-1 -2 -3.5 -7.5t-3.5 -8.5l-5 -10q-1 -1 -2 -1q0 -1 1 -2l-15 -31q-2 -6 -4 -8q-30 -64 -47 -126q-2 -8 -5.5 -24.5t-3.5 -18.5q0 -1 2 -5zM-3 181l21 47q21 46 42 93.5
t21 50.5q-17 -14 -48.5 -84.5t-35.5 -106.5zM12 299l1 1q2 1 3 2q29 58 29 62l-1 1v1q-12 -13 -34 -61q0 -2 2 -6zM236 349v3l-1 -2zM326 335q2 2 2 3q2 0 -1 3q0 -1 -0.5 -1t-0.5 -1v-4zM14 136v2l90 193q2 4 2 6q-2 -4 -2 -5h-1q-8 0 -49.5 -93t-41.5 -100q0 -1 2 -3z
M319 323q5 2 5 10q-5 -3 -5 -10zM131 -109q20 48 58 131q7 18 24 53l57 125q15 32 43 98q8 14 6 24q-6 -7 -19 -29q2 0 5 3q-58 -124 -86 -186q-2 -4 -6.5 -14t-7.5 -15q-14 -34 -22 -50q-5 -13 -16 -38.5t-16 -37.5q-20 -45 -20 -64zM176 -73q8 14 28 63l4 10l20 45l2 2
q3 6 9 20.5t10 22.5l33 74l23 50v1l23 54q-2 -1 -41 -84l-12 -25l1 -1h-1q-4 -8 -5 -11l-6 -12t-7 -14.5t-5 -12.5q-6 -12 -24 -51l-3 -7l-7 -14q0 -1 -2 -5t-5.5 -12.5t-6.5 -15.5q-28 -68 -28 -77zM-32 170q2 4 2 5q1 4 2.5 13t2.5 14q-3 -3 -4.5 -7.5t-2.5 -9.5t-2 -8v-1
q0 -1 1 -3t1 -3zM164 -266q6 3 11 8q30 32 42.5 79.5t-7.5 101.5q-3 3 -5 3q-3 0 -5 -4q-2 -2 -2 -3q-36 -104 -44 -158q-2 -8 0 -23q0 -3 3.5 -4.5t6.5 0.5z" />
    <glyph glyph-name="r" unicode="r" horiz-adv-x="402" 
d="M133 -19q-69 0 -91 46t-7 105q17 68 105 235q2 4 9 23q3 8 -6 14q-18 13 -27 22l-15 13q-1 0 -1 1q-4 2 -6 2h-1q-3 0 -7 -2l-16 -28q-17 -27 -34 -55l-16 -28l-16 -27q-8 -14 -17 -11t-12 13.5t0 16.5l53 87q23 39 8 70q-1 2 -4.5 8.5t-5.5 10.5q0 1 -1 1v1
q-11 16 -4 40q5 19 29 23q2 0 2 1h14q10 -2 15 -4q1 0 1 -1q17 -8 30 -24l9 -12q16 -24 59.5 -49t76 -49.5t32.5 -52.5q0 -11 -4 -19.5t-19 -38.5t-33 -71q-42 -99 -60 -148q-5 -14 -7.5 -21.5t-4.5 -16t-0.5 -12t5.5 -3.5q39 0 211 280l22 36q9 16 19.5 0.5t3.5 -28.5
q-40 -71 -68.5 -117t-71 -107t-80.5 -92.5t-69 -31.5zM57 96l3 3q1 3 2.5 8t2.5 7q24 82 65 163l18 39l3 6l13 28q5 11 8 20v1l-1 4q-1 1 -1 2l-3 -3q-19 -41 -20 -43l-5 -11q-3 -6 -28 -57t-36 -79q0 -1 -2 -7q-17 -43 -20 -71q-1 -1 -1 -4q0 -2 2 -6zM247 336q9 4 9 15
q0 4 -1 5q-8 -8 -8 -16v-4zM95 110q1 2 3 4.5t2 3.5q1 4 4 11.5t4 10.5l63 146q16 34 20 52q0 1 1 2v2v6q-1 0 -1 1t-1 1l-2 -2l-4 -6q-3 -6 -8.5 -19t-8.5 -20l-3 -6q-27 -58 -32 -71q-22 -52 -24 -58q-10 -30 -14 -45v-3q0 -7 1 -10zM245 333q0 1 0.5 1t0.5 1q-1 -1 -1 -2
zM142 92q7 10 9 17q5 10 12.5 30t12.5 30q6 15 18.5 44.5t18.5 44.5q12 29 12 38v1q-3 0 -8 -11q-1 -2 -2.5 -5.5t-2.5 -4.5q-3 -7 -8.5 -20t-8.5 -19q-30 -70 -44 -106q-9 -23 -9 -33v-6zM141 84q1 1 1 2v4q-1 0 -3 -2q0 -2 2 -4z" />
    <glyph glyph-name="s" unicode="s" horiz-adv-x="356" 
d="M-12 -22q-67 0 -110.5 37t-38.5 101q5 63 48.5 104t98.5 32q27 -5 44 -24t17 -47q0 -2 -2 -5.5t-3 -2.5q-51 20 -90 -33q-30 -43 -23 -83q5 -30 33 -30q31 0 66 52t54 124q7 28 9.5 61.5t2 51t-4 56.5t-3.5 45q-1 0 -2 -1q-32 -32 -72 -100q-14 -23 -26 -11.5t-2 31.5
q0 1 1 2q5 8 21.5 34t22.5 34.5t21 30t22.5 30t21 24.5t23.5 22.5t23 14.5t26 10.5t26 2.5q21 0 34 -11t13 -32q0 -1 -7.5 -13.5t-13 -35t-1.5 -49.5q8 -52 8 -108q0 -97 -24 -155q25 26 70 91.5t62 95.5q4 6 16 26q15 24 25 5q7 -16 1 -27l-14 -24q-97 -165 -181.5 -245.5
t-191.5 -80.5zM81 134q6 4 9.5 9.5t6.5 15.5t4 11q6 13 13.5 47t7.5 48q0 9 -2 13q-2 -2 -2 -7q-9 -68 -37 -137zM112 133q4 2 4 4q11 15 20 40t7 39q-1 0 -2 1l-1 1q0 -1 -2 -2q-1 0 0 -1q-3 -18 -14.5 -44.5t-11.5 -36.5v-1zM177 172l5 5q1 0 1 1q-1 1 -1 2l-1 -1l-1 -1
q-3 -3 -3 -6zM163 143q4 2 8 9.5t4 10.5v6q-9 -7 -12 -26zM157 134q3 2 4 7q-4 -2 -4 -4v-3zM-112 132l3 4q-1 0 -1 1t1 2q-3 0 -3 -2v-5zM97 126q6 2 8 11q-6 -2 -8 -11zM70 131q1 1 1 2q1 2 1 3l-3 -3z" />
    <glyph glyph-name="t" unicode="t" horiz-adv-x="275" 
d="M-18 19q-79 62 -39 204q13 46 37.5 98.5t43 85t53.5 91.5l53 89q3 5 21.5 34.5t26.5 45.5q-136 -2 -163 -83q-2 -11 5 -22q11 -20 -12 -26q-9 -2 -18 1q-32 10 -49.5 37.5t-16.5 58.5t28.5 60t78.5 39q23 5 57 5q48 -2 73 -5q8 -1 24 -2.5t24 -2.5q22 41 26 52
q28 67 21 101q-1 4 1.5 7t7.5 3q29 1 52 -17q15 -12 24 -32q1 -1 1 -2q1 -2 1 -3q4 -11 4 -25q1 -27 -10 -68q-7 -20 -13 -34q43 -9 75.5 -7t61.5 20l3 2q8 4 16 -4q1 -1 8.5 -1.5t9.5 -5.5l1 -1h2q12 -5 8 -16v-2q0 -1 4 -5.5t1 -8.5t-13 -10q-4 -2 -6 -4q-19 -9 -42 -12
q-45 -5 -152 6q-5 -8 -6 -15q-2 -6 -14 -32q-61 -117 -87 -162q-82 -144 -114 -235t-25 -125q5 -26 38 11q7 9 22 28q72 92 152 218q12 17 22 9q5 -4 7 -13.5t-1 -14.5q-80 -133 -145 -219q-19 -25 -27.5 -35.5t-29 -31.5t-35.5 -28t-36 -8t-40 12zM268 798l2 3v3l-1 1
q-1 -1 -1 -2t-1 -2q0 -1 1 -3zM260 774l4 8l-1 1q0 1 -0.5 1t-0.5 1l-2 -2v-9zM-14 226q0 1 2 2l1 2q3 5 4 11q31 81 84 178q10 19 130 227q2 3 6 11h1q1 1 2.5 5t2.5 5l30 54v1q6 11 16 35q2 3 4 15l-3 -2q-3 -1 -5 -6q-1 -1 -1 -3t-1 -3q-6 -12 -18 -34l-1 -1v-1v-1
q-8 -14 -22 -42q-4 -8 -7 -12q0 -1 -1.5 -4t-2.5 -4h-1q-6 -11 -7 -13q-6 -10 -20 -33.5t-19 -32.5q-13 -24 -46.5 -82t-51.5 -90q-4 -4 -5 -8q0 -1 -1 -1v-1q-23 -39 -42 -83q-12 -28 -17 -41q-3 -8 -7 -24.5t-5 -18.5l1 -2v-3zM268 730l3 3q1 1 0 2l-1 1q-1 0 -1 -2l-1 -2
v-2zM262 719h1q1 0 2 1q2 2 2 8q-5 -2 -5 -8v-1zM42 288q67 114 169 307q4 8 13.5 25t14.5 25q1 3 5 10t5 10q10 18 15 28q8 16 8 21q0 2 -1 3q-2 -2 -6 -8q-21 -37 -25 -43l-11 -20v-1q-37 -62 -79 -139q-14 -26 -41 -77.5t-41 -76.5q-23 -41 -26 -64zM-18 686q4 -1 6 4
l6 5l-6 -4v-1q-6 2 -6 -4zM-37 667q15 3 18 19q-13 -2 -18 -19zM14 676q5 0 5 4h1v1q1 1 1 2l-2 -2v-1q-5 2 -5 -4zM-13 651h2v2q19 13 24 23q-21 -3 -24 -23q0 -1 -1 -1zM-41 660l3 3v3q-3 0 -3 -2v-4zM100 316q17 24 32 62q100 184 141 267l3 5q0 1 1 2.5t2 2.5t1 2
q-1 0 -8 -12l-2 -3q-87 -153 -119 -217q-6 -11 -28.5 -56t-22.5 -53zM30 636q5 3 15 11q0 1 1 2h-5q-11 -11 -11 -13zM21 629l1 1h2v2l5 3q1 0 1 -1v1h-1q-3 0 -5 -3q0 -1 -1 -1q0 -1 -1 -1zM90 298q0 1 1 2l1 2l-2 -2v-2zM30 281q0 1 0.5 1t0.5 1v3q-2 0 -2 -2l1 -1v-2z
M83 280q1 1 1 2v2v-1l-1 -1v-2z" />
    <glyph glyph-name="u" unicode="u" horiz-adv-x="547" 
d="M35 -2q-45 0 -80 42.5t-35 101.5q0 20 8 49.5t19.5 58t26.5 61t27 54.5t22.5 42.5t11.5 21.5q13 33 10 42q0 1 -1.5 5t-1.5 6q0 10 19 10q32 1 64.5 -25.5t29.5 -69.5q-3 -35 -17 -68q-1 -2 -13 -29q-40 -86 -52 -116q-61 -136 -31 -136q3 0 7 1q33 13 91 93t102.5 157
t69.5 130q14 29 10 42q-2 9 -2 11q0 10 19 10h7q32 -3 60.5 -29t25.5 -66q0 -8 -1 -11q-3 -27 -16 -57q-8 -20 -13 -29q-9 -19 -26.5 -58t-25.5 -58q-41 -95 -39 -124q3 -43 68 45t143 216l19 31q14 22 24 -1q6 -15 2 -22q-1 -2 -16 -27q-10 -16 -30 -50l-30 -51
t-28.5 -46.5t-30 -45.5t-28 -38t-28.5 -33.5t-26 -22.5t-27 -14t-25 -1q-39 7 -69 45.5t-31 90.5q-6 -8 -9 -11q0 -1 -1 -1q-95 -126 -153 -126zM-53 123l3 5q2 5 6.5 22t7.5 26q21 54 42 101q7 15 22 45t22 45q3 7 8.5 20t8.5 19l2 8q0 1 -2 5l-2 -1q-2 -1 -3 -2
q-16 -40 -47 -101q-7 -14 -42 -94q-8 -18 -11 -27q-4 -11 -17 -64q0 -4 1 -6q1 0 1 -1zM222 123q2 4 2 5l15 48q7 20 17 43l24 58l12 24q22 44 32 66l2 3l12 28v1q1 1 1 2l2 5v1q2 4 2 7l-1 2v3q-5 -2 -5 -3q-12 -28 -19 -42q-4 -10 -14 -29.5t-14 -29.5q-20 -38 -43 -94
q-2 -4 -5.5 -13t-5.5 -14l-3 -9q-2 -7 -13 -55v-6q1 0 2 -1zM-18 153q4 4 5 6q24 58 69 153l4 10q5 9 13 27l2 3l3 7q7 20 8 26v7q-4 -2 -5 -4q-20 -41 -35 -74q-31 -66 -53 -119q-1 -2 -2 -4.5t-2 -5.5t-2 -5q-2 -6 -2 -8h-1q0 -4 -1 -5q-1 -5 -1 -14zM259 153l6 6
q29 71 68 153q1 1 2.5 4.5t2.5 5.5q8 18 13 27q0 1 1 3l3 7l9 26q1 1 0 3.5t-1 3.5q-4 -2 -5 -4q-11 -24 -35 -74q-18 -39 -52 -119q-4 -5 -6 -15l-3 -8q-1 -2 -1 -5q-2 -10 -2 -14zM120 348l3 2l-1 2v3q-2 -2 -2 -3v-4zM397 348l2 1q1 0 1 1q1 1 -1 5q0 -1 -1 -1l-1 -2v-4z
M71 239q5 3 6 4q2 4 3.5 8t4 9t3.5 8l12 26q2 4 2 5q1 1 1 3l15 33q1 3 1 12l-5 -5l-42 -93v-4.5t-1 -5.5zM349 239q5 3 5 4l12 25l12 26q0 3 2 5v1l1 2q10 22 14 33q1 1 1 12q0 -1 -2 -2.5t-2 -2.5l-42 -93q-1 -1 -1 -10zM38 163l2 1q1 0 1 1l30 66v7q-4 -2 -5 -4
q-15 -33 -26 -59q-2 -3 -2 -12zM316 163l3 2l30 66v7q-5 -3 -6 -4q-15 -33 -26 -59q-1 -3 -1 -12zM33 152q6 1 4 10q-4 -2 -4 -10zM311 152q4 1 4 10q-4 -2 -4 -10zM-20 145l1 5q-2 -2 -2 -3q1 -1 1 -2zM24 126q10 9 9 24q-9 -10 -9 -24zM301 126q11 9 9 24q-9 -10 -9 -24z
M257 145l1 4q-1 -1 -1 -2v-2z" />
    <glyph glyph-name="v" unicode="v" horiz-adv-x="437" 
d="M33 -2q-37 0 -66.5 29t-38.5 74q-3 16 -3 35q0 27 13 71q26 83 95 222q11 24 11 35q0 5 -1 7q-2 8 -2 11q0 10 20 10q31 0 62 -24.5t31 -64.5q0 -15 -17 -56q-6 -15 -38.5 -83t-49.5 -116.5t-17 -84.5q0 -15 9 -15l7 1q1 1 2 1q42 18 112 124h1q-15 13 -9 25q5 8 13.5 13
t24.5 20t36 49q55 95 84 157q16 32 25.5 44.5t22.5 12.5q15 0 25 -8.5t10 -18.5q0 -5 -5 -12q-8 -9 -24.5 -38.5t-43 -80t-48.5 -87.5q-7 -14 -17 -29v-1l-8 -13q10 0 23.5 3t37 12.5t51 35t51.5 63.5l19 31q12 19 23 1q9 -15 3 -24q-8 -15 -16 -27q-96 -152 -224 -144
l-2 -3q-92 -137 -169 -155q-8 -2 -13 -2zM-47 121l3 4l3 14q5 20 10 35q15 43 38 102q8 18 23.5 51.5t18.5 40.5l15 39q2 6 2 8q0 1 -0.5 2.5t-0.5 2.5q-5 -2 -5 -3q-10 -24 -44 -102q-19 -40 -40 -95q-3 -6 -10 -28q-1 -3 -15 -64v-1q0 -3 1 -5zM-10 152q4 4 5 6
q20 53 64 155q1 1 2.5 5t2.5 5q2 5 5.5 14t5.5 13l2 4l3 7q2 4 4.5 13t3.5 13l-1 7q-4 -2 -5 -4l-1 -2q-30 -68 -32 -73q-5 -13 -7 -16l-42 -104l-6 -16q0 -2 -2 -8v-3l-1 -2q-1 -5 -1 -14zM62 240q5 2 5 4q2 4 5.5 12.5t5.5 12.5q2 5 5.5 14t5.5 13l2 5q1 1 1 3q2 6 6.5 17
t7.5 16v12l-4 -4q-3 -7 -17.5 -41.5t-21.5 -53.5q-1 -2 -1 -10zM31 163l2 1q1 0 1 1q10 23 28 67v7q-5 -3 -5 -4q-9 -20 -25 -60q-1 -3 -1 -12zM23 152q6 1 4 10q-4 -2 -4 -10zM13 126q12 9 9 24q-9 -10 -9 -24z" />
    <glyph glyph-name="w" unicode="w" horiz-adv-x="685" 
d="M27 -2q-47 0 -75 38.5t-28 99.5q0 17 5.5 41t14.5 51t19.5 52.5t22.5 52.5t20.5 45t17.5 35l8 17q11 22 11 34q0 5 -1 8q-2 6 -2 10q0 10 20 10q31 0 62 -24.5t31 -63.5q0 -22 -30.5 -86t-61 -137t-30.5 -118q0 -10 1.5 -12t6.5 -2q5 1 10 5t14 15t14 16q24 26 41 49
q16 22 24 34q44 64 65 97q40 64 58 104l1 1q0 1 1 1q0 1 3 7t4 10q0 2 1 5t1.5 5.5t0.5 4.5q0 1 -0.5 4t-0.5 4l-2 4q0 1 -0.5 3t-0.5 3q0 7 9 9q4 1 12 1q28 0 51 -24t23 -64q0 -15 -10 -45q-12 -30 -30 -66q-48 -113 -48 -169q0 -15 10 -15h4l2 1q1 1 2 1q39 17 99 104
l14 20h-1q-17 12 -9 25q6 8 9 10q1 1 2 1q2 2 6 4q2 1 3 2q26 18 33 28q3 3 5 7q58 97 102 187q24 50 40 56q1 0 4 0.5t4 0.5q15 0 25 -8.5t10 -18.5q0 -4 -6 -12q-9 -10 -29.5 -47.5t-52 -97t-58.5 -104.5q20 1 42 8q67 25 120 106l19 31q12 19 23 1q9 -15 3 -24
q-8 -15 -16 -27q-94 -149 -218 -144h-5q-95 -140 -171 -158q-8 -2 -11 -2h-2q-37 0 -66.5 29t-38.5 74l-3 18q-31 -37 -48 -56t-47 -42t-52 -23zM-48 121l3 4q9 38 13 49q15 43 38 102q8 18 23.5 51.5t18.5 40.5l15 39q2 6 2 8q0 1 -0.5 2.5t-0.5 2.5q-5 -2 -5 -3
q-10 -24 -44 -102q-19 -40 -40 -95q-3 -6 -10 -28q-1 -1 -15 -65q0 -3 1 -5zM-11 152q4 4 5 6q20 53 64 155q1 1 2.5 5t2.5 5q2 5 5.5 14t5.5 13l2 4l3 7q2 4 4.5 13t3.5 13l-1 7q-4 -2 -5 -4l-33 -75q-17 -40 -49 -120l-6 -16q0 -2 -2 -8q0 -1 -1 -3v-2q-1 -5 -1 -14z
M247 177l5 5l6 15h1q18 46 49 116l4 10l12 27v2l1 2l-24 -48l-44 -95q-1 -2 -2.5 -6t-2.5 -6q-1 -1 -1.5 -3.5t-0.5 -3.5v-2q-1 -1 -1 -2q-1 -2 -1.5 -5.5t-0.5 -5.5zM61 240q5 2 5 4q2 4 5.5 12.5t5.5 12.5q2 5 5.5 14t5.5 13q0 1 0.5 2.5t1.5 2.5t1 3q3 6 7.5 17t6.5 16
v12l-4 -4q-3 -7 -17.5 -41.5t-21.5 -53.5q-1 -2 -1 -10zM211 154l6 20q18 52 39 102q4 12 10 23q-9 -17 -32 -67l-10 -22q-2 -4 -2 -7l-2 -5q-4 -13 -10 -39v-4zM30 163l2 1q1 0 1 1q10 23 28 67v7q-5 -3 -5 -4q-9 -20 -25 -60q-1 -3 -1 -12zM22 152q6 1 4 10q-4 -2 -4 -10z
M12 126q12 9 9 24q-9 -10 -9 -24z" />
    <glyph glyph-name="x" unicode="x" horiz-adv-x="481" 
d="M-375 -122q100 0 196.5 72t178.5 186q22 31 34 220q-4 -8 -14 -25.5t-17 -29.5q-12 -20 -27 -11q-14 9 -5 25q9 15 20 33.5t16 26.5t12.5 22t9 19t5.5 17t2 17t-1 19q-1 5 -4.5 8.5t-3.5 4.5q0 10 21 10q13 0 26 -4q11 -3 26 -11q47 -27 50 -69q1 -9 0.5 -31t-0.5 -45
l-1 -24l3 4l8 8l4 5q8 8 38.5 44.5t52.5 57.5q74 68 136 68q21 0 37 -9q25 -14 23 -30q-1 -9 -10 -15.5t-20 -6.5t-26 -9q-8 -5 -16.5 -12.5t-22 -21.5t-25 -26t-32.5 -36t-37 -42.5t-46.5 -54t-53.5 -61.5q-31 -35 -31 -82q-1 -37 17 -57q3 -3 5 -4q3 -5 23 -5q24 0 46.5 9
t47.5 33t43 43.5t47.5 63.5t45 68.5t50.5 80.5l19 31q15 22 24 3q8 -15 2 -26l-16 -27q-12 -20 -38.5 -65t-38 -64t-35 -54t-37 -50.5t-36 -38.5t-41.5 -32.5t-43 -17.5t-50 -8q-20 0 -38.5 5t-31 12t-24.5 16t-18 16t-12 13l-5 7q-4 3 -7 3t-6 -3q-40 -50 -89 -93.5
t-109.5 -77t-118 -45t-116.5 9.5t-105 80q-2 2 0 5.5t5 3.5q64 -46 134 -46zM40 211l4 4q3 12 3 13q1 7 2.5 20t2.5 20q1 19 5 57l3 28v1q-2 35 -4 40q0 -1 -1 -3t-1 -3v-2q-1 -9 -2.5 -27t-2.5 -27l-3 -30q-1 -12 -3.5 -37t-3.5 -38v-11l1 -2v-3zM75 252q2 2 2 4q3 12 3 22
q1 3 1 8l5 62q0 4 -1 6l-1 -2v-3l-12 -85h1v-5q0 -4 2 -7zM173 275q19 22 20 23q-15 -7 -20 -23zM168 269l3 4q-3 0 -3 -4zM163 263q1 2 3 4q-3 0 -3 -4zM158 258l4 4q-4 0 -4 -4zM153 253q2 2 3 4q-3 -1 -3 -4zM148 247q1 3 4 4q-4 0 -4 -4z" />
    <glyph glyph-name="y" unicode="y" horiz-adv-x="501" 
d="M495 352q9 17 21 0q10 -14 5 -23l-16 -27q-30 -50 -50.5 -82t-53.5 -75.5t-70 -75.5t-78 -53l-1 -1q-22 -44 -40 -72q-112 -228 -276 -228q-52 0 -86.5 24t-39.5 62q-5 29 10 58q40 90 207 141q47 14 87 27q2 3 6.5 13.5t7.5 15.5q2 6 4 9v1q3 6 8 18.5t6 15.5q2 2 2 5
q-48 -51 -91 -51q-49 0 -88.5 29.5t-39.5 79.5q0 25 25.5 91t45 109t31.5 66q14 29 10 42q0 2 -1 5.5t-1 5.5q0 10 19 10q32 1 64.5 -25.5t29.5 -69.5q-3 -35 -17 -68q-2 -4 -6.5 -14t-7.5 -15q-9 -19 -26.5 -58t-25.5 -58q-41 -97 -5 -92q3 1 7 2q78 30 182 247l26 60
q12 28 10 39q-3 9 -3 11q0 10 19 10q42 0 72 -34q25 -26 22 -62q-4 -48 -99 -252l-2 -4l-12 -26q84 52 190 238q2 3 9 14.5t10 16.5zM-38 160l3 4q17 52 32 86.5t32 67t25 49.5q6 13 16 39q2 6 2 8q0 3 -1 5q-5 -2 -5 -3q-18 -42 -39 -82t-36 -75t-31 -93q-1 -1 1 -5z
M88 388q-60 -123 -79.5 -169t-20.5 -66q1 1 20.5 42.5t39.5 84.5l19 42l6.5 13t6.5 14v1l1 2l3 7q1 3 9 26q1 3 -1 7zM95 -72q20 21 101 195q97 210 111 252q2 4 2 7q1 3 -1 5q-2 0 -3 -1l-2 -2q0 -1 -1 -2l-118 -259q-13 -30 -46 -100v-1l-30 -66q-3 -7 -6.5 -14t-5.5 -10z
M335 357l-11 -23q-53 -111 -81 -175l-17 -39q-33 -75 -34 -81q0 -7 42 79q26 55 80 172q20 42 26 63q1 2 -1 8zM116 352v-4l2 1q1 0 1 1v5zM20 126q1 0 20 41.5t38 84.5l19 42q0 1 0.5 2.5t1.5 2.5q0 1 1 3l15 33q1 3 1 12l-5 -5q-91 -200 -91 -216zM267 94l8 16
q88 184 88 198l2 2q1 1 1 2q1 2 1 3t-2 3q1 0 1 5q-3 -3 -3 -5l-1 -1v-1l-1 -2l-1 -2q-8 -13 -43 -90.5t-46 -111.5zM-23 145v5l-1 -1v-2t1 -2zM228 10q4 5 17 33.5t9 28.5q-3 0 -9 -12.5t-12.5 -29.5t-8.5 -20q-2 -2 0.5 -2t3.5 2zM135 -63q-15 -27 -15 -30q50 59 59 110
q-1 -1 -44 -80zM177 -72q5 5 18 26.5t18 36.5q-36 -61 -36 -63zM-84 -244q40 14 87.5 75t85.5 141q-4 -2 -6 -2l-10 -3q-108 -33 -155.5 -77t-50.5 -86q-1 -24 12 -41q9 -10 19 -10q9 0 18 3z" />
    <glyph glyph-name="z" unicode="z" horiz-adv-x="422" 
d="M-180 -282q-34 4 -56.5 25.5t-27.5 52.5q-6 26 5 59q20 60 91.5 109.5t200.5 73.5q12 64 5 109q0 3 -2 9t-2 9q-3 9 -3 15v2q0 8 7 14q32 15 53 29q62 42 101 125q35 74 12 99q-6 8 -19 8q-90 0 -180 -154q-14 -24 -26 -8q-11 14 -3 28q108 186 222 186q50 0 82.5 -31
t32.5 -89q0 -65 -46.5 -139t-104.5 -111q-7 -4 -7 -7v-3q10 -28 7 -64q17 7 32.5 16.5t28 17t27.5 23t23.5 22.5t23.5 27t20 26t21.5 31t19 29t20 33t19.5 31q23 37 24 39q5 9 15 -5q11 -17 3 -31l-15 -25q-68 -114 -132.5 -190t-137.5 -104q-38 -153 -174 -250
q-39 -24 -79 -34q-35 -10 -81 -3zM72 168q5 3 6 4h2q67 45 113 107.5t55 127.5q-10 -34 -25.5 -65.5t-31 -53.5t-35.5 -43.5t-33 -32.5t-29 -24t-18 -15q-1 -1 -2 -3zM107 167q34 13 97.5 90t63.5 125q-15 -51 -70.5 -124.5t-90.5 -90.5zM152 168q21 0 72.5 67.5t55.5 104.5
q-23 -53 -55 -96t-53 -60zM-79 -213q92 57 134 196q8 25 13 57q1 1 1 2v5q-1 -1 -3 -6q-1 -3 -3.5 -12.5t-6 -21.5t-7.5 -24q-38 -120 -128 -196zM-49 -221q38 16 77 84t52 123q4 22 3 27q0 -9 -5 -27q-14 -49 -53 -113.5t-74 -93.5zM-208 -197q3 -47 54 -27q56 21 113 93
q41 51 57 103q0 3 -1 5q0 1 -2 3q-3 -1 -9 -1q-103 -18 -159.5 -74t-52.5 -102zM-5 -215q32 19 73 93t32 94q-2 -10 -7 -28t-31.5 -67.5t-66.5 -91.5z" />
    <glyph glyph-name="braceleft" unicode="{" horiz-adv-x="396" 
d="M252 -59q-31 -13 -66.5 -6t-62.5 27q-73 53 -73 173q0 25 18 88t18 129q0 22 -16 35q-5 3 -5 7t5 7q83 49 146.5 123t98 142t65.5 129.5t69 99t88 37.5q27 0 48 -14t21 -23q0 -6 -4 -9q-10 -5 -14 -5q-39 -5 -70.5 -46t-58 -101.5t-57.5 -124.5t-83 -126t-119 -95
q-6 -3 -13 -5.5t-11 -4l-8 -3t-5.5 -4t-1.5 -5.5q4 -5 8 -15t12 -43t0 -69q-5 -33 -18 -89t-13 -85q0 -23 4 -39q11 -44 48 -51q16 -4 35 -1q12 2 19 4q18 6 21 5q6 -2 7 -6v-6q-1 -10 -12 -19q-10 -7 -20 -11zM427 789q2 2 2 7q-2 -6 -2 -7zM398 786l1 1h-1v-1zM421 777
l3 10q-4 -3 -4 -6q0 -2 1 -4zM415 772l4 3q-3 0 -4 -3zM409 759q5 1 5 6v5q-5 -2 -5 -8v-3zM385 762l3 6q-3 -2 -3 -6zM380 750l3 8q-3 -2 -3 -6v-2zM405 748l3 10q-4 -3 -4 -6t1 -4zM376 744l2 2h-1q0 -1 -1 -2zM393 730q7 2 11 15q-7 -2 -11 -15zM369 730h1q0 1 1 2z
M388 718q5 1 5 5v5zM383 706q5 1 5 6q0 4 -1 6q-4 -3 -4 -9v-3zM358 709q2 2 4 6q-2 -1 -4 -6zM354 697l3 8q-3 -1 -3 -6v-2zM379 694q4 1 4 8v3q-5 -1 -5 -6q0 -3 1 -5zM374 683l3 10q-4 -1 -4 -5q0 -3 1 -5zM342 677q5 1 5 6q0 2 -1 3q-2 -6 -4 -9zM362 666q5 1 6 1.5
t5 13.5q-7 -2 -11 -15zM333 655q3 4 4 9q-4 -3 -4 -6v-3zM352 641q5 3 5 7v5q6 1 6 6q0 1 -0.5 2.5t-0.5 2.5q0 -2 -5 -11q-5 -3 -5 -7v-5zM322 636q4 3 4 7q0 1 -1 2zM341 625q11 1 11 15q-7 -1 -11 -15zM317 626l3 7q-3 -1 -3 -5v-2zM314 621q0 1 1 2h-1v-2zM337 612
q5 2 5 6q0 1 -0.5 2.5t-0.5 2.5q0 -1 -1.5 -5t-2.5 -6zM332 600q4 3 4 8v3q-5 -1 -5 -6q0 -1 0.5 -2.5t0.5 -2.5zM302 596l3 9q-4 -3 -4 -6q0 -2 1 -3zM325 595h2q3 0 5 4l-1 1h-1q-3 0 -5 -5zM321 583q5 2 5 7v2q-1 1 -1 2q-4 -3 -4 -8v-3zM311 566q9 6 9 16q-9 -4 -9 -16z
M305 560q3 0 5 4q-2 -1 -5 -4zM300 549q3 1 3 6v1zM103 289v2q0 2 -1 3v-3q0 -2 1 -2zM97 257q0 1 2 3q1 1 1 2v3l-1 2q-2 -4 -2 -9v-1zM94 242l2 1q1 0 1 1q0 2 -0.5 4.5t-0.5 3.5q0 -1 -2 -4q-1 -3 -1 -4q1 -1 1 -2zM89 214q4 6 4 8l-4 4v-12zM85 196q4 3 4 8l-1 7
q-4 -1 -4 -7t1 -8zM80 178q5 2 5 8q0 2 -0.5 5t-0.5 4q-5 -3 -5 -8q0 -1 0.5 -4t0.5 -5zM76 156q5 7 5 11q0 2 -2 10q-4 -3 -4 -9q0 -2 0.5 -6t0.5 -6zM74 149q0 3 1 4l-2 -2z" />
    <glyph glyph-name="bar" unicode="|" horiz-adv-x="485" 
d="M485 884q1 -3 -0.5 -16.5t-7 -36.5t-13.5 -46v-1q-12 -33 -35 -82l-5 -8q-1 -3 -3.5 -8.5t-3.5 -7.5q-6 -10 -8 -15q-5 -6 -6 -12q-4 -6 -5 -9q-76 -142 -95 -175l-3 -6q-4 -6 -5 -10l-14 -23q-1 -3 -3.5 -7.5t-3.5 -5.5q-2 -5 -7 -14t-6 -11q0 -1 -1 -1l-6 -12
q-4 -7 -7 -14l-6 -10l-3.5 -7t-3.5 -8l-6 -12q-26 -51 -54.5 -124.5t-48 -159t-1.5 -117.5q2 -2 4 -6q4 -6 1 -11q-2 -6 -7 -8l-11 -3q-18 -3 -37 1q-22 6 -43 28q-27 32 -30.5 88t12.5 119t38 119t48 105q6 12 17 33.5t16 30.5q1 0 1 1l2 3q0 1 1 3h1q3 8 8 16q12 20 22 38
l9 15q15 25 42.5 71t38.5 65q8 14 10 16q3 5 5 10q6 9 16 27q18 30 30 52q2 4 4 6q1 3 5 9q1 2 2 5t2 4l1 2q2 3 3 5q11 20 33 65q2 4 7 14.5t6.5 13.5t6 14t5 14t4 14.5t2.5 15.5t1 16.5t-1 18.5q-1 5 2 8.5t8 3.5q32 1 54 -23.5t22 -59.5zM404 865v-3q1 2 3 4l-1 4
q-1 -1 -1 -2q-1 -2 -1 -3zM395 837v-3q0 2 1 3t1 2l2 3v1q0 2 -2 4q0 -1 -1 -3t-1 -7zM120 328v1q1 1 1 2q5 9 15 29l9 18q18 34 28 50q0 1 1 2v1q97 172 141 245l4 8q3 5 11 18.5t11 19.5l3 6q25 45 29 54q3 5 7 15l1 1l7 16l1 1q2 5 4 17q-3 -1 -5 -3.5t-3.5 -7t-2.5 -5.5
l-23 -44l-1 -1v-1l-7 -13l-12 -24q-2 -4 -4 -6v-1q-2 -4 -7 -13t-8 -14l-1 -2l-16 -27l-8 -14l-1 -1q-4 -6 -5 -9q-2 -4 -3 -5q-2 -4 -4 -5v-1q-2 -4 -6.5 -11t-5.5 -10q-17 -28 -49 -84q-22 -38 -33 -58l-24 -42v-1q-1 -1 -1 -2l-3 -4q-4 -6 -5 -10q-2 -2 -4 -6l-3.5 -7
t-4.5 -7q-2 -4 -2 -5h-1q-3 -5 -6 -12t-5.5 -11.5t-4.5 -8.5l-7 -14q-6 -12 -9 -17q-1 -2 -2.5 -6t-2.5 -6q-2 -3 -4.5 -9t-3.5 -9q-2 -4 -2 -5q-4 -8 -5 -12l-9 -23q0 -1 -1 -3q-11 -29 -11 -37q-1 -1 1 -5l1 2l1 1v1q1 1 1 2l2 4q0 1 1 2q0 1 2 5l9 24q4 8 11.5 26
t11.5 26l6 13zM400 789v-4l1 1l1 1l1 1l-2 4q0 -2 -1 -3zM398 783q-4 -3 -6 -12q6 2 6 12zM195 405l2 2l8 16q1 1 2.5 4t2.5 4v1q1 1 1 2q2 4 9 16.5t11 18.5l8 15l1 1q24 45 58 103q4 10 11 20l38 68q0 1 1 1q15 27 34 65q9 20 9 23l1 1v4q-3 -3 -7 -9l-78 -136
q-8 -14 -24 -42.5t-24 -43.5l-10 -18l-10 -19q-7 -13 -38 -69q0 -1 -0.5 -1t-0.5 -1l-9 -17l-3 -6q-2 -2 -2 -4l-12 -21v-1l-1 -2l-4 -7q-1 -2 -2.5 -4.5t-2.5 -4.5l-2 -4l-1.5 -3t-0.5 -2l-1 -1l-3 -6v-1q-1 -1 -1 -2q-5 -7 -9 -18q-2 -3 -6 -13q0 -1 -2 -3q0 -2 -1 -3
q0 -1 -1 -2v-2q-1 -1 -1 -3q-4 -9 -6 -17v-1q1 2 8 15l4 7q3 5 5 10q1 1 2.5 4t2.5 4t1 3l9 15l9 18l6 10l1 2q12 22 18 34zM416 725l2 2q0 1 -1 2q0 -1 -0.5 -1t-0.5 -1v-2zM407 705l3 3q-1 1 -1 2zM402 695q2 5 3 6q-3 -1 -73.5 -129.5t-73.5 -134.5q-1 0 -1 -1l-19 -36
v-1l-4 -7q-10 -20 -15 -29q0 -2 -1 -3l-2 -4l-2 -4l-4 -10q-2 -2 -2 -4l-2 -4q-1 -1 -1 -3l-2 -4q0 -1 -1 -3l-2 -3v-3l-1 -2l-1 -2v-1q1 1 3 5l2 3l1 2q1 0 1 2l2 3q21 39 23 43v2q2 2 2 3v1l1 1q2 4 2 5l1 1q9 16 16 30l2 3q7 14 8 15q9 16 31.5 58.5t35.5 66.5
q1 1 3.5 5.5t3.5 7.5q5 10 15.5 29.5t15.5 28.5l6 12q3 4 7 12q2 6 8 16v1l4 6l7 14zM187 292l2 5q-2 -2 -2 -3v-2zM128 281l1 1q-1 0 -1 -1zM126 275q1 1 1 4q0 -1 -1 -1l-1 -2q0 -2 1 -3v2zM180 273v3l-1 -1q0 -1 -1 -1q0 -2 1 -2v1h1z" />
    <glyph glyph-name="braceright" unicode="}" horiz-adv-x="322" 
d="M-98 -85q-29 11 -49 32q-4 4 -1.5 8.5t7.5 4.5q28 -2 54 22q18 17 34 39q42 66 57 108q26 73 70 134q36 54 79 76q9 5 3 12l-3 2q-34 26 -39 80q-6 66 20 119q14 27 61 110q12 21 55 99q19 34 28 98q4 25 -4 43q-1 3 1.5 6.5t6.5 3.5q76 -5 88 -67q1 -6 2 -15t1 -11
q-5 -70 -31 -121q-9 -17 -28 -50.5t-28 -50.5q-26 -45 -45 -85q-31 -63 -28 -124q2 -25 7 -34q10 -18 9.5 -30t-7 -21t-23.5 -32.5t-31 -51.5l-21 -45q-5 -11 -14.5 -34t-15.5 -36.5t-15.5 -32.5t-18.5 -34q-42 -72 -114 -110l-23 -11q-24 -10 -44 -1zM279 765l1 2v2
q-1 -1 -1 -4zM275 755q0 1 1 3q1 1 1 4q-3 -2 -4 -3q0 -2 2 -4zM265 735l3 3l-1 4q-2 -2 -2 -3v-4zM258 723q4 2 6 10q-6 -1 -6 -10zM251 711q6 2 6 11q-6 -1 -6 -11zM244 700q6 1 6 11q-6 -2 -6 -11zM238 688q7 2 5 12q-7 -4 -5 -12zM231 677q6 1 6 10q-6 -1 -6 -10z
M218 654q6 1 6 11q6 1 6 11q-6 -2 -6 -11v-1q-8 -1 -6 -10zM251 659q3 1 5 8zM244 648q4 2 6 10zM211 642q6 2 6 11q-6 -2 -6 -11zM238 637q3 1 5 8q-3 -3 -5 -8zM205 630q6 2 6 11q-8 -1 -6 -11zM198 618q6 2 6 11q-6 0 -6 -11zM224 614q5 7 5 8q-3 -2 -5 -8zM192 607
q0 2 5 11q-7 -1 -5 -11zM218 603l5 8q-3 -1 -5 -8zM185 597l6 9q-6 0 -6 -9zM179 584q5 2 5 11q-7 -2 -5 -11zM164 561q5 1 7 11q5 2 7 11q-4 0 -5 -1.5t-1 -5.5l-1 -4q-5 -2 -7 -11zM161 552l3 4q0 2 -1 3q-1 0 -3 -3v-2q1 -1 1 -2zM151 533q2 0 4 2q1 1 0 2q-1 2 -1 3
q-2 -2 -2 -3zM149 524q1 1 1 3v3l-3 -3q2 -2 2 -3zM137 276h1l1 2zM130 265q0 1 2 4t2 5q-6 -3 -4 -9zM97 258q2 6 4 10q-4 -3 -4 -10zM109 236q7 2 7 3q5 8 13 24q-1 -1 -2 -1h-2q-12 -12 -16 -26zM90 247q4 6 6 10q-4 -1 -6 -10zM84 236q2 5 5 10q-5 -2 -5 -10zM103 223
q7 2 5 12q-5 -4 -5 -12zM57 190q6 6 26 44h-2q-23 -23 -24 -44zM96 212q6 1 6 11q-6 -2 -6 -11zM90 195q8 6 5 16q-7 -5 -5 -16zM83 183q6 4 6 11q-3 0 -4.5 -2t-1.5 -5v-4zM50 177q6 1 6 11q-6 -1 -6 -11zM78 176l2 1q1 0 1 1q1 2 1 4l-3 -3q-1 -1 -1 -3zM44 159q7 5 5 17
q-7 -5 -5 -17zM72 158l2 2v1l-1 1l-1 -1v-1v-2zM30 131q1 0 2 1q2 0 2 1q5 11 8 24q-12 -8 -12 -26zM59 128l1 3h-1v-3zM24 113q7 4 5 17q-7 -6 -5 -17zM51 108l2 3q-1 1 -1 2q-1 -1 -1 -5zM10 85q14 11 13 26q-15 -10 -13 -26zM43 91q4 7 5 14q-3 -3 -5 -14zM37 80q1 3 5 9
q-5 -1 -5 -9zM4 72q7 2 5 12q-7 -2 -5 -12zM30 67q6 1 6 10q-6 -1 -6 -10zM76 68l3 2q0 1 -1 2zM-3 61q6 1 6 10q-6 -1 -6 -10zM17 43q6 2 6 11v1q8 1 6 11q-8 -2 -6 -12q-8 -1 -6 -11zM-9 49q7 3 5 11q-7 -3 -5 -11zM-16 38q4 2 6 10q-6 -1 -6 -10zM10 32q4 6 5 10
q-7 -1 -5 -10zM-22 27q0 2 4 9q-4 -2 -4 -9zM3 26q5 0 7 4q-5 1 -7 -4zM-3 15q6 3 5 9q-1 -3 -5 -9zM-6 12l1 1h-1v-1z" />
    <glyph glyph-name="asciitilde" unicode="~" horiz-adv-x="336" 
d="M4 315q-5 0 -15 6t-21 23t-9 39q3 36 33.5 56.5t74.5 16.5q33 -3 82 -31t80 -31q25 -2 45.5 11t22.5 35q3 5 13 5q13 -2 24.5 -12.5t10.5 -26.5q-2 -24 -35.5 -50.5t-78.5 -22.5q-35 4 -79 27.5t-68 25.5q-19 2 -33.5 -4.5t-22.5 -17.5t-13 -22.5t-7.5 -19t-3.5 -7.5z
M-23 392q3 3 3 4q-1 2 -1 4l-2 -3v-5zM-25 383q0 1 0.5 1.5t1.5 2.5v4l-3 -3v-2q1 -2 1 -3zM-10 373q0 1 3 7t3 7l-1 2q-3 0 -5 -10v-6z" />
    <glyph glyph-name="exclamdown" unicode="&#xa1;" horiz-adv-x="316" 
d="M308 868q17 33 42 18q27 -16 26 -62q0 -23 -10 -46q-1 -2 -7 -16t-10 -21q-10 -13 -33 -14.5t-40.5 16.5t-6.5 43q12 26 22 46q3 6 8.5 18t8.5 18zM358 807l-1 2v-5l1 1v2zM336 753q4 9 11 27t9 22l-5 -5q-11 -23 -22 -47q-1 -1 -1 -2v-1l1 -1h2q4 4 5 7zM229 689
q0 19 21 24q29 6 49 -30q13 -22 16 -58q5 -59 -26.5 -146t-73 -159t-92 -156.5t-66.5 -120.5q-26 -58 -25 -85q0 -7 2 -21q1 -4 -1.5 -7.5t-7.5 -3.5q-106 0 -79 112q18 72 119 258q108 197 137 275q27 71 27 118zM199 339q15 29 26.5 58t16.5 45.5t5 20.5q0 2 -2 4
q-3 -4 -4 -8q-1 -2 -6 -15t-14 -36t-20 -44q-7 -18 -25 -50l-29 -53q-32 -54 -48 -80q-47 -84 -51 -93q-4 -8 -6 -11q-9 -18 -11 -32q5 1 10 14q6 10 8 15q1 2 12.5 24t20.5 39q2 5 13 23q8 14 32 53.5t34 56.5q6 10 21 37q1 2 3 4q10 23 14 28zM138 412h-1l1 -2l1 1v3
q-1 -1 -1 -2zM192 413q-1 -2 -1 -6q0 1 1 1l1 2l-1 1v2zM156 341q-1 -1 -13 -23q-93 -167 -107 -194q-8 -16 -8 -25q5 5 7 8q79 140 117 211q1 3 5.5 11t6.5 13q23 40 26 63q-2 -2 -6.5 -11t-5.5 -10q-16 -32 -22 -43zM131 396q0 -3 -1 -5l2 3q-1 1 -1 2zM92 292
q-43 -84 -67 -133q1 1 13 22t31 55t34 64q21 42 28 59q1 1 1 3t1 3q4 8 4 13l-3 -6t-3 -5l-26 -51zM7 152l1 4l-2 -2zM1 137v2l-2 -2q1 -1 1 -2q0 1 0.5 1t0.5 1zM24 89q4 3 4 9q-5 -1 -5 -9v-1zM22 86q-3 0 -3 -3q0 -1 1 -3l1 2q0 3 1 4zM26 35q0 -1 1 -2t1 -2q1 2 2 12z
M21 11q0 1 1 3l1 2l-1 1v1q-2 -2 -2 -3q0 -3 1 -4z" />
    <glyph glyph-name="cent" unicode="&#xa2;" horiz-adv-x="572" 
d="M196 -39q-25 7 -44 26q-57 57 -28 209q-51 30 -69 76q-15 40 -15 75q-3 70 25 140q50 126 138.5 214t186.5 101q2 3 6 11l3 6l9 19l3 7q18 36 30 66q1 2 6 14t6 15l4.5 13.5t4.5 15t3 14t2 16.5t-0.5 16.5t-1.5 18.5q-1 5 2.5 8.5t8.5 3.5q30 3 53.5 -20.5t25.5 -58.5
q1 -5 0.5 -17t-5 -35.5t-11.5 -47.5v-1q-15 -48 -31 -83l-1 -1q63 -35 65 -116q-1 -58 -48 -101q-19 -18 -55 -11q-7 2 -19.5 8t-17.5 8q-2 0 -2 2q-7 7 -6 11q0 6 8 9q4 -1 15 4q17 6 29 25q15 23 16.5 52.5t-9.5 52.5q-3 9 -13 23l-1 2q-12 14 -29 14l-17 -1l-23 -4l-9 -3
l-11 -4l-19 -8q-85 -35 -138 -118q-59 -90 -77 -185q-8 -40 -9 -62q-3 -55 10 -91q31 -86 124 -51q57 21 114 80q13 10 28.5 8.5t28 -11t8.5 -16.5q-16 -30 -66 -64q-69 -47 -130 -58q-36 -146 -9 -186l4 -6q3 -5 2 -11q-2 -6 -7 -8l-11 -4q-20 -4 -37 -1zM476 941l2 4
q0 3 -1 4q0 -1 -2 -5v-2q1 0 1 -1zM468 913v3q1 1 1 2l2 3q0 1 1 1q0 1 -3 4l-1 -1v-2t-0.5 -3t-0.5 -4zM414 803h8v1q16 31 26 56l7 15v1q2 3 4.5 9t3.5 8q2 12 4 18q-4 -1 -6 -4t-3.5 -7.5t-2.5 -5.5l-20 -45q0 -1 -0.5 -1t-0.5 -1l-6 -13zM475 864q1 1 2 1v1q1 0 1 1v1
q-1 2 -1 3q-1 -1 -1 -3q-1 -1 -1 -4zM469 850q3 1 5 12q-5 -3 -5 -12zM442 801h8l9 19q6 12 9 24v5q-1 -1 -7 -10q-9 -19 -19 -38zM495 805q0 1 1 2v2l-2 -2zM509 671l2 2l-2 2v-4zM505 651l1 2l-1 1v-3zM115 509v1h-1zM89 424q1 0 1 1q4 5 4 20l-1 2q7 3 5 15v2q3 0 3 1
l6 23l1 1v1l2 3v4q-2 -2 -2 -3v-4h-1v-2q-10 -12 -9 -24q0 -1 -1 -1l1 -1q-7 -5 -5 -15q0 -1 -1 -1q1 -1 2 -1q-6 -5 -4 -20zM84 482q0 3 1 4l1 1q0 2 1 3l1 1v2v1q-1 -1 -1 -4q-1 -1 -1 -2q-1 0 -1 -2q-1 0 -3 -2zM77 462l2 3q0 1 -1 1l-1 2l-1 -1v-1zM71 444l1 1q4 4 4 15
h1v1l-1 -1q-4 -2 -4 -15q-1 0 -1 -1zM128 446l1 2h-1v-2zM62 369l1 10v20h1v2q4 6 2 25l1 1v1q5 3 5 15q-5 -2 -5 -15l-1 -2q0 -1 -1.5 -3t-1.5 -4q-1 -6 1 -18l-1 -1v-1q-5 -4 -3 -18q0 -4 2 -12zM87 413q1 1 1 4v2q1 2 1 3l-3 -5z" />
    </font>
</defs>
</svg>
